<?xml version="1.0" standalone="no"?>
<!DOCTYPE svg PUBLIC "-//W3C//DTD SVG 1.1//EN" "http://www.w3.org/Graphics/SVG/1.1/DTD/svg11.dtd" >
<svg xmlns="http://www.w3.org/2000/svg" xmlns:xlink="http://www.w3.org/1999/xlink" version="1.1">
<metadata>
Created by FontForge 20170731 at Wed Sep 14 19:02:13 2022
 By Aleksey,,,
(c) 1990, 1991, 1992, 1994, 1997, 1998, 2000, 2002, 2004 Adobe Systems Incorporated. All rights reserved.
</metadata>
<defs>
<font id="MinionPro-MediumIt" horiz-adv-x="819" >
  <font-face 
    font-family="Minion Pro Med"
    font-weight="500"
    font-style="italic"
    font-stretch="normal"
    units-per-em="2048"
    panose-1="2 4 5 3 5 3 6 9 2 3"
    ascent="1489"
    descent="-559"
    x-height="922"
    cap-height="1329"
    bbox="-420 -737 3449 2062"
    underline-thickness="102"
    underline-position="-307"
    slope="-12"
    unicode-range="U+0020-FB06"
  />
<missing-glyph horiz-adv-x="1024" 
d="M0 0v1434h1024v-1434h-1024zM512 809l348 522h-696zM573 717l349 -522v1044zM164 102h696l-348 523zM102 1239v-1044l349 522z" />
    <glyph glyph-name="T_h" unicode="Th" horiz-adv-x="2129" 
d="M2036 225l26 -51q-83 -90 -171 -144.5t-136 -54.5q-83 0 -37 201l109 475q17 73 12.5 103t-31.5 30q-60 0 -195.5 -129t-211.5 -256q-38 -152 -80 -385q-76 -12 -164 -39l-14 17q140 623 260 1247q-184 16 -359 16h-126l-205 -989q-9 -42 -12 -68t-4 -49.5t7.5 -36.5
t19.5 -23.5t35.5 -16t50.5 -9t71 -6.5l-15 -57h-579l12 57q47 4 74 7.5t52 13.5t36.5 20.5t24.5 36.5t20 53.5t18 77.5l217 989h-139q-125 0 -177.5 -13t-82.5 -48q-50 -59 -104 -182h-66q61 189 98 368h45q14 -34 32.5 -42.5t62.5 -8.5h807q125 0 163 7t50 32l8 39
q113 51 155 51q15 0 18 -14.5t-5 -52.5q-136 -629 -181 -844h5q93 120 192.5 204t177.5 126q80 45 137 45q117 0 64 -234l-109 -477q-18 -76 4 -76q16 0 58 26.5t82 63.5z" />
    <glyph glyph-name="Tcaron_h" unicode="&#x164;h" horiz-adv-x="2129" 
d="M2036 225l26 -51q-83 -90 -171 -144.5t-136 -54.5q-83 0 -37 201l109 475q17 73 12.5 103t-31.5 30q-60 0 -195.5 -129t-211.5 -256q-38 -152 -80 -385q-76 -12 -164 -39l-14 17q140 623 260 1247q-184 16 -359 16h-126l-205 -989q-9 -42 -12 -68t-4 -49.5t7.5 -36.5
t19.5 -23.5t35.5 -16t50.5 -9t71 -6.5l-15 -57h-579l12 57q47 4 74 7.5t52 13.5t36.5 20.5t24.5 36.5t20 53.5t18 77.5l217 989h-139q-125 0 -177.5 -13t-82.5 -48q-50 -59 -104 -182h-66q61 189 98 368h45q14 -34 32.5 -42.5t62.5 -8.5h807q125 0 163 7t50 32l8 39
q113 51 155 51q15 0 18 -14.5t-5 -52.5q-136 -629 -181 -844h5q93 120 192.5 204t177.5 126q80 45 137 45q117 0 64 -234l-109 -477q-18 -76 4 -76q16 0 58 26.5t82 63.5zM1133 1669l28 -47q-155 -103 -280 -217h-56q-94 113 -213 217l39 47q99 -41 221 -119q144 77 261 119
z" />
    <glyph glyph-name="uni021A_h" unicode="&#x21a;h" horiz-adv-x="2129" 
d="M2036 225l26 -51q-83 -90 -171 -144.5t-136 -54.5q-83 0 -37 201l109 475q17 73 12.5 103t-31.5 30q-60 0 -195.5 -129t-211.5 -256q-38 -152 -80 -385q-76 -12 -164 -39l-14 17q140 623 260 1247q-184 16 -359 16h-126l-205 -989q-9 -42 -12 -68t-4 -49.5t7.5 -36.5
t19.5 -23.5t35.5 -16t50.5 -9t71 -6.5l-15 -57h-579l12 57q47 4 74 7.5t52 13.5t36.5 20.5t24.5 36.5t20 53.5t18 77.5l217 989h-139q-125 0 -177.5 -13t-82.5 -48q-50 -59 -104 -182h-66q61 189 98 368h45q14 -34 32.5 -42.5t62.5 -8.5h807q125 0 163 7t50 32l8 39
q113 51 155 51q15 0 18 -14.5t-5 -52.5q-136 -629 -181 -844h5q93 120 192.5 204t177.5 126q80 45 137 45q117 0 64 -234l-109 -477q-18 -76 4 -76q16 0 58 26.5t82 63.5zM584 -61q52 0 89 -38t38 -100q0 -52 -22.5 -94.5t-61 -70.5t-80 -46t-88.5 -28l-17 57
q70 26 106 53.5t36 67.5q0 54 -74 76q-25 6 -25 41t28 58.5t71 23.5z" />
    <glyph glyph-name="f_b" unicode="fb" horiz-adv-x="1564" 
d="M688 889l-41 -66l-203 -20q-73 -419 -106 -578q-52 -255 -112.5 -393t-151.5 -229q-63 -64 -122.5 -94.5t-105.5 -30.5q-44 0 -84.5 27t-40.5 61q0 44 60 96q22 17 39 0q25 -24 62 -38.5t67 -14.5q53 0 80 41q62 72 135 504q16 100 51 319.5t55 333.5h-166l-8 20l62 62
h129q58 276 200 416q62 62 151 105.5t157 43.5q103 0 161 -51q118 51 144 51q10 0 13.5 -7t2.5 -20t-6 -36q-69 -281 -172 -758h4q118 140 236.5 214.5t195.5 74.5q71 0 111.5 -62.5t40.5 -167.5q0 -169 -88 -339.5t-224 -262.5q-172 -115 -317 -115q-55 0 -100.5 25.5
t-71.5 65.5q-48 74 -10 262q106 527 198 938q-31 48 -77.5 76t-98.5 28q-63 0 -111 -41.5t-91 -150.5t-74 -289h227zM1270 797q-59 0 -150.5 -73t-201.5 -220q-20 -57 -37 -170q-13 -62 -10.5 -106.5t12 -74t29.5 -46.5t41.5 -24t47.5 -7q59 0 107 28q89 55 159 214.5
t70 336.5q0 71 -18 106.5t-49 35.5z" />
    <glyph glyph-name="f_f_b" unicode="ffb" horiz-adv-x="2105" 
d="M1227 889l-41 -68l-199 -18q-56 -336 -86 -496q-35 -187 -80 -314.5t-96 -203t-125 -139.5q-64 -58 -143.5 -89.5t-141.5 -31.5q-137 0 -221 94q-58 -60 -128.5 -101.5t-127.5 -41.5q-43 0 -81 22.5t-38 55.5q1 18 15.5 42.5t32.5 39.5q33 38 59 20q72 -47 121 -47
q52 0 86 43q65 90 127 485q25 153 58.5 360.5t49.5 301.5h-172l-6 22l60 64h133q54 226 182 356q69 69 168 115.5t190 46.5q73 0 127.5 -27t81.5 -67q68 65 152.5 103t154.5 38q46 0 90.5 -14.5t69.5 -36.5q112 51 143 51q26 0 11 -63q-94 -380 -172 -758h4
q121 141 237.5 215t192.5 74q70 0 110.5 -62.5t40.5 -167.5q0 -168 -88 -340t-223 -264q-169 -113 -317 -113q-54 0 -100 25.5t-70 65.5q-51 78 -11 262q45 232 199 934q-31 50 -78.5 80t-99.5 30q-47 -1 -85 -24t-73.5 -76.5t-64.5 -149t-51 -233.5h223zM1810 797
q-55 0 -148 -73.5t-202 -221.5q-20 -59 -37 -168q-12 -78 -9.5 -128t23.5 -79.5t46.5 -41t58.5 -11.5q57 0 105 30q91 55 162 214t71 337q0 71 -19 106.5t-51 35.5zM459 889h370q38 201 119 319q-66 113 -205 113q-108 0 -175 -97.5t-109 -334.5zM811 803h-369
q-13 -75 -31.5 -185.5t-35 -201.5t-37.5 -191q-37 -188 -75.5 -300.5t-90.5 -192.5q36 -42 95.5 -70.5t115.5 -28.5q127 0 186 91q23 31 40.5 67t47.5 142.5t58 267.5q59 362 96 602z" />
    <glyph glyph-name="f_f_h" unicode="ffh" horiz-adv-x="2177" 
d="M2087 227l24 -51q-84 -91 -171 -146t-136 -55q-83 0 -37 201l109 475q12 50 14 78t-5 40.5t-25 12.5q-62 0 -197 -128t-213 -257q-70 -324 -80 -383q-76 -12 -164 -39l-14 17q103 449 266 1274q-34 48 -82 77t-100 29q-64 0 -112 -42.5t-89 -151t-71 -289.5h223l-41 -68
l-197 -16q-11 -62 -28 -163.5t-31 -181t-31 -159.5q-51 -267 -120.5 -410.5t-178.5 -240.5q-62 -58 -141 -89.5t-144 -31.5q-137 0 -223 94q-56 -59 -126 -101t-126 -42q-44 0 -83.5 22t-39.5 54q1 19 16 45.5t31 42.5q33 33 62 16q69 -49 121 -49q48 0 84 45q62 81 129 487
q49 312 108 662h-170l-8 22l60 62h133q54 221 184 354q69 70 167 117t189 47q73 0 129 -26.5t86 -63.5q60 62 145.5 99.5t157.5 37.5q47 0 91.5 -14.5t72.5 -38.5q109 53 137 53q26 0 11 -59l-180 -854h4q98 127 197 211.5t177 126.5q79 43 136 43q116 0 65 -234l-110 -475
q-9 -46 -8.5 -61.5t12.5 -16.5q14 -2 56.5 25.5t84.5 66.5zM459 889h370q38 202 123 323q-66 109 -202 109q-115 0 -183 -97.5t-108 -334.5zM813 805h-371q-83 -466 -106 -580q-37 -190 -75 -301t-89 -190q34 -42 96 -71.5t119 -29.5q123 0 180 93q23 31 40.5 65.5t48 142
t57.5 267.5q16 96 100 604z" />
    <glyph glyph-name="f_f_j" unicode="ffj" horiz-adv-x="1583" 
d="M147 889h134q24 104 65 190t121 166q65 67 164 113.5t194 46.5q72 0 127 -26.5t82 -61.5q140 137 309 137q58 0 103.5 -15.5t68.5 -39t34.5 -46t11.5 -40.5q0 -32 -21.5 -59t-58.5 -40q-69 -27 -82 29q-19 66 -47.5 99.5t-79.5 33.5q-195 0 -273 -487h218q150 0 278 26
q24 -9 27.5 -39.5t-11.5 -105.5q-4 -22 -48.5 -247t-69.5 -345q-73 -369 -250 -524q-71 -66 -129.5 -95.5t-93.5 -29.5q-34 0 -62.5 18t-28.5 47q0 23 17 50.5t39 46.5t43 8q58 -35 104 -35q40 0 71.5 46.5t59.5 160.5q29 130 160 805q16 85 1 107t-95 22h-244
q-12 -64 -29 -161t-31.5 -177t-29.5 -160q-52 -280 -117.5 -420t-177.5 -237q-63 -57 -141 -90t-137 -33q-136 0 -232 96q-55 -60 -126 -102.5t-128 -42.5q-44 0 -80.5 20.5t-36.5 52.5q1 19 16.5 46t31.5 41q32 32 59 18q68 -45 119 -45q54 0 82 45q61 79 127 487
q24 150 110 664h-170l-4 18zM453 889h370q41 202 127 325q-32 49 -85.5 78t-112.5 29q-115 0 -185.5 -98.5t-113.5 -333.5zM807 807h-371q-18 -102 -49.5 -288.5t-50.5 -291.5q-37 -191 -76.5 -305.5t-91.5 -191.5q36 -42 96.5 -69.5t120.5 -27.5q124 0 184 91
q76 99 136 454q41 244 102 629z" />
    <glyph glyph-name="f_f_k" unicode="ffk" horiz-adv-x="2076" 
d="M1454 489q63 76 174 187q238 246 354 246q41 0 65 -20t24 -46q0 -41 -41 -88q-22 -19 -35 -12q-32 18 -82 18q-62 0 -131.5 -49.5t-120.5 -110.5q25 -85 69.5 -193t81.5 -179q34 -70 54.5 -97.5t38.5 -27.5q36 0 116 92l35 -45q-67 -103 -128.5 -146t-104.5 -43
q-38 0 -71.5 30.5t-68.5 107.5q-73 151 -149 374q-87 -91 -107 -127q-41 -181 -67 -344q-89 -15 -162 -41l-14 13q128 572 276 1284q-32 46 -79 73t-101 27q-65 -1 -111.5 -40t-89.5 -147.5t-75 -295.5h223l-41 -68l-197 -18q-11 -64 -28 -163.5t-30.5 -177.5t-29.5 -155
q-53 -276 -120 -418t-177 -237q-63 -58 -144.5 -90.5t-142.5 -32.5q-136 0 -225 94q-54 -59 -125.5 -101t-128.5 -42q-43 0 -81 21t-38 53q1 19 17 45t33 41q32 32 59 16q72 -47 119 -47q50 0 86 45q64 89 127 487q22 135 56 346.5t52 315.5h-170l-8 22l62 64h131
q53 220 186 356q68 70 167.5 116t190.5 46q73 0 127.5 -27t83.5 -63q62 60 148 98.5t155 38.5q45 0 90.5 -15t73.5 -38q109 53 137 53q14 0 17 -13.5t-4 -41.5q-77 -334 -201 -910zM459 889h370q39 204 121 325q-70 107 -200 107q-113 0 -181 -96.5t-110 -335.5zM813 803
h-371q-11 -62 -44 -255t-58 -321q-38 -191 -76.5 -304t-87.5 -193q35 -41 95 -70t116 -29q124 0 184 93q24 31 41.5 67t46 138.5t54.5 258.5q41 246 100 615z" />
    <glyph glyph-name="f_f_t" unicode="fft" horiz-adv-x="1705" 
d="M1778 889l-56 -76l-204 -8l-117 -555q-24 -123 14 -123q24 0 83 39t97 78l29 -49q-61 -75 -163 -148.5t-173 -73.5q-30 0 -47.5 24.5t-22.5 86t19 166.5l119 555h-369q-10 -53 -42.5 -236.5t-51.5 -279.5q-49 -262 -114.5 -399.5t-174.5 -235.5q-65 -60 -146 -92.5
t-145 -32.5q-139 0 -223 92q-57 -59 -126.5 -100t-125.5 -41q-43 0 -81 24t-38 56q0 19 14 45t31 43q33 33 60 14q67 -49 121 -49q56 0 86 43q66 86 129 481q14 91 50.5 323t55.5 345h-170l-8 20l62 64h133q48 214 182 348q67 71 167.5 119.5t192.5 48.5q71 0 123 -26.5
t80 -65.5q65 65 145 103t150 38q58 0 96.5 -30t36.5 -62q0 -26 -18 -53.5t-39 -40.5q-29 -20 -49 0q-74 84 -146 84q-64 0 -113 -107.5t-87 -355.5h372l37 160l168 131l21 -15l-64 -276h240zM457 889h370q38 204 117 319q-32 52 -84.5 81.5t-114.5 29.5q-110 0 -179.5 -101
t-108.5 -329zM811 805h-371l-42.5 -255t-57.5 -325q-67 -344 -166 -493q32 -42 90.5 -71.5t116.5 -29.5q126 0 182 90q84 101 148 465q25 152 57.5 354t42.5 265z" />
    <glyph glyph-name="f_h" unicode="fh" horiz-adv-x="1628" 
d="M1540 227l27 -51q-83 -92 -170.5 -146.5t-136.5 -54.5q-83 0 -37 201l108 471q17 73 13 105t-29 32q-62 0 -196 -128t-212 -257q-52 -213 -80 -385q-75 -11 -163 -39l-15 17q97 431 264 1274q-31 47 -79.5 73.5t-102.5 26.5q-65 0 -112 -39.5t-88 -146.5t-72 -291h225
l-41 -66l-199 -20q-10 -56 -26 -147.5t-25 -143t-24.5 -131t-32.5 -160.5q-52 -252 -114 -389.5t-156 -230.5q-61 -64 -121 -93.5t-107 -29.5q-45 0 -84.5 27t-38.5 61q0 23 17.5 50t42.5 46q21 18 39 0q25 -24 62.5 -41.5t64.5 -17.5q53 0 82 43q33 37 65.5 149t71.5 350
q20 121 54.5 336.5t53.5 325.5h-168l-6 20l60 62h131q54 266 202 414q64 65 151.5 108t160.5 43q46 0 90 -14.5t69 -36.5q6 2 25 11t32 14.5t30.5 12t30.5 10t22 3.5q14 0 16.5 -15t-4.5 -44l-180 -850h4q174 225 373 332q77 45 137 45q114 0 63 -234l-110 -477
q-9 -44 -8.5 -60t12.5 -16q15 0 57.5 27.5t81.5 64.5z" />
    <glyph glyph-name="f_j" unicode="fj" horiz-adv-x="1040" 
d="M154 889h125q62 288 221 432q148 133 305 133q57 0 100 -15t65 -38t32 -45t10 -41q0 -32 -20 -59t-56 -37q-73 -24 -82 22q-30 135 -123 135q-191 0 -276 -487h207q179 0 286 26q46 3 15 -161q-11 -55 -52 -257.5t-65 -318.5q-73 -368 -248 -522q-71 -66 -129.5 -96.5
t-91.5 -30.5q-34 0 -64 19.5t-30 48.5q0 21 18 50.5t39 47.5q20 20 43 6q60 -35 106 -35q41 0 70 44.5t57 160.5q40 168 160 801q19 86 5 110.5t-89 24.5h-254q-77 -422 -108 -561q-58 -269 -117.5 -406t-151.5 -231q-65 -68 -127.5 -99.5t-109.5 -31.5q-44 0 -81.5 25
t-37.5 59q0 45 62 96q20 15 38 0q59 -51 121 -51q53 0 86 41q62 71 138 508q54 306 112 651h-160l-8 20z" />
    <glyph glyph-name="f_k" unicode="fk" horiz-adv-x="1540" 
d="M913 494q58 70 172 184q73 73 124.5 119t117 85.5t113.5 39.5q41 0 65.5 -20t24.5 -46q0 -21 -12.5 -45.5t-28.5 -40.5q-20 -20 -35 -14q-29 16 -82 16q-62 0 -131.5 -48.5t-124.5 -109.5q57 -180 156 -374q34 -69 54 -95t38 -26q16 0 48 24t67 66l37 -45
q-46 -72 -95 -116.5t-81.5 -58.5t-59.5 -14q-37 0 -69.5 30.5t-67.5 107.5q-83 173 -154 374q-76 -79 -104 -125q-36 -169 -68 -346q-86 -15 -162 -41l-12 13q184 825 277 1280q-31 47 -80.5 75.5t-100.5 28.5q-97 0 -165 -108t-115 -375h225l-43 -68l-197 -20
q-14 -75 -33.5 -187t-36 -202t-38.5 -191q-52 -255 -113 -390.5t-155 -227.5q-63 -64 -123.5 -94.5t-106.5 -30.5q-45 0 -84.5 27t-38.5 61q0 22 17 49t41 47q23 15 41 0q27 -24 62.5 -39.5t64.5 -15.5q49 0 79 41q69 86 140 497q18 107 53 326.5t55 331.5h-168l-6 20l62 66
h131q53 270 202 416q64 64 152 106.5t160 42.5q100 0 162 -51q112 51 137 51q14 0 16.5 -14t-4.5 -43q-85 -378 -199 -903z" />
    <glyph glyph-name="f_t" unicode="ft" horiz-adv-x="1171" 
d="M1239 889l-53 -76l-205 -8l-117 -555q-25 -121 13 -121q24 0 82.5 37t95.5 76l30 -47q-64 -77 -163.5 -149.5t-171.5 -72.5q-29 0 -46.5 24.5t-22.5 86t19 166.5l119 555h-375q-12 -66 -32 -183t-35.5 -200t-34.5 -174q-56 -271 -115 -411t-151 -232q-62 -65 -124 -95
t-108 -30q-48 0 -84.5 24t-35.5 60q0 46 59 98q22 16 41 0q61 -53 125 -53q50 0 82 41q60 65 133 506q54 340 106 649h-161l-9 20l64 64h123q53 268 196 411q68 68 147.5 111t149.5 43q57 0 95 -31t38 -65q0 -25 -18.5 -52t-40.5 -42q-27 -20 -47 0q-77 84 -143 84
q-65 0 -114 -106t-89 -353h377l39 162l167 131l21 -15l-64 -278h238z" />
    <glyph glyph-name="longs_b" unicode="&#x17f;b" horiz-adv-x="1482" 
d="M862 633h4q124 143 238 216t192 73q70 0 110 -62t40 -166q0 -171 -86 -342.5t-221 -261.5q-168 -115 -316 -115q-54 0 -101 25.5t-73 65.5q-47 77 -10 260q29 146 97.5 460.5t103.5 483.5q-27 45 -71 72.5t-91 27.5q-34 0 -62.5 -14t-59.5 -55t-57.5 -109.5t-53.5 -182.5
t-52 -270q-77 -454 -98 -561q-47 -233 -106 -359.5t-152 -217.5q-123 -123 -234 -123q-45 0 -86 28.5t-41 63.5q0 22 17.5 48t42.5 46t43 2q26 -24 62.5 -41.5t66.5 -17.5q51 0 86 41q62 67 129 504q73 472 88 555q37 211 92.5 352t140.5 233q59 71 142 116.5t155 45.5
q91 0 150 -47q96 47 131 47q28 0 14 -59q-115 -488 -174 -762zM1192 797q-58 0 -151 -75.5t-197 -217.5q-20 -61 -39 -168q-24 -141 13 -202.5t110 -61.5q52 0 102 32q89 54 159.5 213t70.5 336q0 73 -18.5 108.5t-49.5 35.5z" />
    <glyph glyph-name="longs_h" unicode="&#x17f;h" horiz-adv-x="1556" 
d="M1468 227l25 -51q-81 -91 -169 -146t-138 -55q-83 0 -37 201l108 475q17 73 14 103t-28 30q-62 0 -194 -128t-211 -257q-50 -200 -80 -385q-76 -12 -164 -39l-14 17q139 611 266 1276q-25 48 -70 75t-90 27q-44 1 -80 -24t-74.5 -90t-73.5 -195t-65 -322
q-56 -362 -98 -561q-45 -233 -104.5 -359t-153.5 -216q-63 -66 -125 -95.5t-109 -29.5q-45 0 -86 28.5t-41 63.5q0 45 58 92q23 21 43 4q27 -25 65 -42t68 -17q46 0 84 41q62 62 129 504q78 506 86 553q37 209 93.5 351t141.5 236q57 69 146 115.5t162 46.5q91 0 147 -49
q35 20 73.5 34.5t55.5 14.5q13 0 15.5 -13t-3.5 -42l-180 -854h4q95 124 192.5 206.5t176.5 125.5q80 45 137 45q117 0 64 -234l-109 -477q-7 -30 -8 -46.5t1.5 -22.5t10.5 -7q15 0 57.5 27.5t81.5 64.5z" />
    <glyph glyph-name="longs_i" unicode="&#x17f;i" horiz-adv-x="1030" 
d="M739 1454q56 0 97.5 -14.5t62 -37t29.5 -44t8 -39.5q0 -31 -19.5 -57t-56.5 -39t-55.5 -7.5t-24.5 31.5q-22 123 -114 123q-32 -1 -58.5 -15t-56 -53.5t-55.5 -105.5t-52.5 -174.5t-50.5 -255.5q-58 -388 -104 -600q-48 -228 -105.5 -351t-152.5 -214q-65 -65 -126.5 -94
t-107.5 -29q-45 0 -86 29.5t-41 62.5q0 44 60 92q24 19 41 2q27 -24 65 -40.5t68 -16.5q50 0 84 43q64 64 131 491q82 506 90 553q74 421 237 602q61 72 140 115t153 43zM938 227l27 -43q-63 -75 -161 -142t-151 -67q-84 0 -32 205l124 512q17 68 0 68q-27 0 -139 -86
l-24 49q89 85 182.5 142t138.5 57q33 0 39.5 -46t-14.5 -122l-137 -549q-16 -70 4 -70q34 0 143 92z" />
    <glyph glyph-name="longs_k" unicode="&#x17f;k" horiz-adv-x="1472" 
d="M842 496l4 -2q58 70 172 184q111 111 199 177.5t155 66.5q41 0 64.5 -19.5t23.5 -46.5q0 -45 -41 -86q-19 -19 -35 -12q-32 16 -79 16q-60 0 -130.5 -48.5t-123.5 -107.5q25 -85 70 -194.5t83 -181.5q33 -70 52.5 -97.5t37.5 -27.5q38 0 115 90l37 -43
q-67 -104 -128.5 -146.5t-105.5 -42.5q-37 0 -70 30.5t-69 107.5q-89 192 -149 376q-85 -88 -107 -129q-39 -185 -67 -344q-83 -15 -164 -41l-13 13q179 801 279 1286q-25 44 -69 71t-93 27q-36 0 -66 -15t-62 -57t-59.5 -111.5t-55 -184t-52.5 -269.5q-71 -421 -100 -563
q-46 -227 -104 -352.5t-152 -216.5q-65 -65 -127.5 -95t-108.5 -30q-45 0 -86 28.5t-41 63.5q0 44 60 92q22 20 41 4q25 -25 62.5 -42t68.5 -17q51 0 86 41q59 59 129 504q66 427 88 546q40 215 97 357t141 235q61 72 144.5 118t151.5 46q99 0 156 -49q89 49 131 49
q26 0 12 -53q-195 -877 -202 -905z" />
    <glyph glyph-name="longs_l" unicode="&#x17f;l" horiz-adv-x="1024" 
d="M956 242l31 -49q-78 -93 -173.5 -155.5t-147.5 -62.5q-87 0 -35 252q53 248 217 1039q-56 104 -158 104q-35 0 -64.5 -14t-61.5 -53.5t-59.5 -106t-55 -177t-50.5 -259.5q-49 -342 -98 -580q-47 -233 -106.5 -358.5t-153.5 -216.5q-64 -65 -126.5 -96t-107.5 -31
t-85.5 28.5t-40.5 63.5q0 44 59 92q25 20 43 2q26 -24 63.5 -41.5t67.5 -17.5q47 0 84 43q62 67 129 497q64 426 86 541q39 225 95 369t143 237q60 70 144 116t153 46q88 0 149 -49q96 49 131 49q13 0 15.5 -13t-3.5 -42q-205 -988 -247 -1186q-16 -80 8 -80q19 0 66.5 33.5
t88.5 75.5z" />
    <glyph glyph-name="longs_longs" unicode="&#x17f;&#x17f;" horiz-adv-x="1003" 
d="M1247 1456q52 0 88.5 -30t36.5 -62q-2 -22 -17.5 -47.5t-37.5 -40.5q-31 -24 -57 2q-27 30 -62.5 50t-64.5 20q-41 0 -71.5 -39.5t-65 -166t-70.5 -356.5q-65 -423 -88 -542q-46 -237 -111.5 -370.5t-173.5 -229.5q-64 -56 -139.5 -85.5t-137.5 -29.5q-128 0 -219 94
q-56 -61 -126 -102t-130 -41q-44 0 -81 23t-37 55q0 21 14.5 46.5t32.5 39.5q33 29 53 18q69 -53 121 -53q49 0 88 39q67 77 131 502q69 446 76 487q37 227 100 378t164 249q60 58 142.5 100.5t162.5 42.5q73 0 126.5 -25.5t78.5 -64.5q146 139 274 139zM346 -369
q121 0 174 86q78 94 142 490q13 80 39 250t40 254q53 344 154 497q-34 53 -86 83t-109 30q-42 0 -76 -15.5t-69.5 -58.5t-65 -114.5t-58 -188t-52.5 -274.5q-8 -50 -25 -158.5t-30.5 -188.5t-30.5 -161q-58 -291 -150 -430q28 -39 87 -70t116 -31z" />
    <glyph glyph-name="longs_longs_i" unicode="&#x17f;&#x17f;i" horiz-adv-x="1560" 
d="M1260 1454q54 0 95.5 -15t63 -38t31.5 -44.5t10 -39.5q0 -29 -20 -55.5t-58 -40.5q-35 -12 -52 -6.5t-25 30.5q-29 125 -117 125q-55 0 -98 -51t-85 -187.5t-79 -367.5q-60 -382 -86 -512q-45 -238 -114.5 -375.5t-180.5 -234.5q-64 -57 -134.5 -85t-131.5 -28
q-133 0 -220 94q-55 -61 -124 -102t-130 -41q-44 0 -82 24t-38 58q0 19 14.5 44t30.5 40q36 28 53 18q71 -55 125 -55q45 0 84 39q62 70 133 499q59 362 80 490q75 442 266 627q59 57 141.5 99t161.5 42q141 0 203 -92q61 61 137 101t146 40zM344 -369q116 0 172 86
q86 108 150 502q13 82 37.5 239.5t35.5 223.5q55 357 162 524q-34 55 -83 86t-105 31q-42 0 -76.5 -16.5t-71 -61.5t-67.5 -119.5t-61 -195.5t-56 -285q-42 -268 -86 -483q-55 -280 -154 -430q31 -42 88 -71.5t115 -29.5zM1466 229l29 -45q-63 -75 -160.5 -142t-148.5 -67
q-87 0 -35 205l127 512q14 66 -2 66q-13 0 -53 -24.5t-84 -59.5l-27 49q89 85 182 142t138 57q68 0 28 -164l-139 -553q-16 -70 4 -70q34 0 141 94z" />
    <glyph glyph-name="longs_longs_l" unicode="&#x17f;&#x17f;l" horiz-adv-x="1562" 
d="M1487 240l29 -47q-78 -92 -174 -155t-146 -63q-87 0 -35 252q24 116 67.5 325.5t80 383.5t69.5 328q-28 51 -71.5 79.5t-94.5 28.5q-48 -1 -84.5 -26t-73.5 -90.5t-69.5 -191t-60.5 -314.5q-65 -413 -86 -517q-43 -229 -109 -362t-176 -229q-64 -56 -137 -84.5
t-135 -28.5q-131 0 -222 94q-55 -61 -124 -102t-130 -41q-44 0 -82 24.5t-38 57.5q0 19 14.5 45t30.5 39q35 31 55 18q70 -55 123 -55t86 41q66 66 131 504q54 365 74 481q39 232 101 383.5t163 249.5q57 56 142 96.5t165 40.5q71 0 126.5 -26t84.5 -64q57 59 138.5 99
t150.5 40q93 0 153 -51q29 18 70.5 34.5t62.5 16.5q24 0 15 -55q-21 -98 -250 -1186q-16 -82 6 -82q18 0 69 34.5t91 74.5zM709 1321q-42 0 -76.5 -15.5t-72 -59.5t-68 -118t-61 -197.5t-56.5 -291.5q-46 -303 -80 -465q-61 -310 -150 -442q32 -42 87.5 -71.5t117.5 -29.5
q114 0 172 93q82 99 140 466q15 92 28.5 182t26 173t18.5 121q59 365 166 542q-76 113 -192 113z" />
    <glyph glyph-name="f_f" unicode="ff" horiz-adv-x="1101" 
d="M152 889h133q51 225 180 352q67 70 169 117t200 47q71 0 123.5 -26t78.5 -60q65 60 139.5 97.5t137.5 37.5q53 0 90 -28.5t35 -59.5q-4 -49 -54 -90q-32 -22 -59 2q-65 68 -129 68q-41 0 -70 -32t-60 -134.5t-62 -290.5h231l-41 -66l-205 -16q-6 -35 -36.5 -216
t-53.5 -292q-51 -267 -118 -407t-179 -238q-63 -59 -144.5 -92t-142.5 -33q-138 0 -231 88q-52 -56 -120 -96.5t-126 -40.5q-45 0 -83 23t-38 55q0 36 50 86q33 33 57 16q67 -49 121 -49q51 0 84 45q66 92 131 485q62 371 108 666h-168l-8 22zM459 889h370q40 207 123 328
q-31 45 -86 73.5t-114 28.5q-125 0 -189 -100.5t-104 -329.5zM813 807h-371q-75 -442 -102 -576q-37 -190 -76.5 -304.5t-93.5 -198.5q33 -39 95 -66t120 -27q129 0 184 84q83 100 144 474q75 459 100 614z" />
    <glyph glyph-name="f_f_i" unicode="ffi" horiz-adv-x="1632" 
d="M1540 233l27 -47q-60 -76 -161 -143.5t-155 -67.5q-89 0 -39 215q52 216 111 478q11 48 13 73.5t-9 41t-32 19t-64 3.5h-240q-12 -63 -28.5 -161t-31 -178t-30.5 -159q-53 -275 -123 -421.5t-188 -243.5q-59 -54 -133 -84.5t-133 -30.5q-135 0 -224 94
q-50 -57 -122.5 -100t-133.5 -43q-46 0 -84.5 23.5t-38.5 56.5q0 19 16 45.5t36 42.5q30 30 57 14q66 -49 119 -49q54 0 84 43q65 88 129 491q21 132 55 344l51 318h-170l-4 18l58 64h133q24 102 67 189.5t123 166.5q66 68 163 114t189 46q73 0 127.5 -26t83.5 -62
q66 64 147 100.5t163 36.5q58 0 103 -15.5t67.5 -39.5t33.5 -46.5t11 -41.5q0 -62 -76 -92q-73 -31 -86 24q-31 135 -127 135q-191 0 -270 -489h215q180 0 278 31q57 0 19 -154q-59 -232 -130 -537q-23 -96 3 -96q18 0 65.5 31t85.5 69zM459 889h368q47 208 127 325
q-33 50 -86 79.5t-112 29.5q-114 0 -183.5 -99t-113.5 -335zM815 807h-371q-20 -105 -52 -291.5t-52 -290.5q-35 -186 -72.5 -298.5t-87.5 -196.5q32 -41 91 -69t120 -28q119 0 178 91q84 106 142 450q26 155 59 358t45 275z" />
    <glyph glyph-name="f_f_l" unicode="ffl" horiz-adv-x="1638" 
d="M1231 889l-43 -68l-197 -18q-12 -64 -28 -160t-30.5 -177t-31.5 -163q-53 -278 -122 -423t-187 -240q-60 -52 -133.5 -82.5t-132.5 -30.5q-139 0 -230 96q-51 -58 -124 -101.5t-134 -43.5q-46 0 -84.5 22.5t-38.5 55.5q0 40 52 88q28 32 57 12q64 -47 119 -47q60 0 90 43
q18 24 32.5 58.5t41.5 146t55 286.5q17 110 53 331.5t53 332.5h-168l-8 20l60 62h133q49 221 184 356q65 67 164.5 113.5t193.5 46.5q134 0 213 -88q61 58 154 97.5t168 39.5q44 0 88.5 -14.5t65.5 -34.5q92 49 126 49q28 0 11 -82q-128 -566 -240 -1153q-17 -88 10 -88
q14 0 63.5 34t84.5 71l31 -46q-72 -90 -169 -152.5t-147 -62.5q-89 0 -41 244q43 208 123.5 596t95.5 463q-22 36 -66 64t-108 28q-60 0 -108 -37t-81.5 -105.5t-56 -150.5t-38.5 -188h225zM459 889h372q40 204 123 325q-30 47 -86 77t-118 30q-71 0 -122.5 -37t-95 -134
t-73.5 -261zM815 807h-371q-8 -45 -44 -255t-60 -329q-64 -342 -160 -489q33 -42 93 -70.5t122 -28.5q123 0 180 89q81 103 138 452q40 240 102 631z" />
    <glyph glyph-name="longs_t" unicode="&#x17f;t" horiz-adv-x="1099" 
d="M743 1454q78 0 120 -37.5t42 -75.5q-2 -27 -20.5 -53t-48.5 -41q-36 -19 -52 13q-53 96 -137 96q-35 -1 -64 -23.5t-62 -83t-64.5 -186t-61.5 -313.5q-65 -397 -104 -586q-48 -228 -105.5 -350.5t-150.5 -212.5q-65 -65 -126 -94t-106 -29q-47 0 -88 27.5t-41 62.5
q0 43 58 90q25 19 43 4q24 -24 62.5 -39.5t70.5 -15.5q49 0 82 41q63 63 131 495q15 89 42 261t42 260q78 442 244 626q59 70 138.5 117t155.5 47zM1176 885l-56 -72l-202 -10l-117 -553q-10 -48 -11 -75.5t5 -37.5t18 -10q24 0 82 38.5t98 78.5l29 -47
q-63 -77 -163.5 -149.5t-174.5 -72.5q-28 0 -45 24t-21.5 85t19.5 166l117 553h-150l-6 18l51 64h123l33 131l170 129l20 -17l-59 -243h240z" />
    <glyph glyph-name="f_i" unicode="fi" horiz-adv-x="1095" 
d="M999 236l31 -46q-59 -75 -161 -145t-160 -70q-89 0 -39 207q15 63 53.5 229.5t60.5 258.5q20 92 5.5 115.5t-91.5 23.5h-254q-70 -405 -106 -565q-59 -268 -118 -405t-150 -230q-65 -67 -127.5 -98t-108.5 -31q-48 0 -85 24.5t-36 59.5q0 43 60 96q23 17 43 0
q56 -49 123 -49q50 0 84 39q63 72 139 506q24 143 57 350.5t49 302.5h-159l-7 20l60 60h123q61 284 223 432q148 133 305 133q106 0 155.5 -45.5t49.5 -91.5q0 -32 -22 -60.5t-58 -37.5q-67 -20 -76 24q-28 131 -125 131q-190 0 -274 -485h209q163 0 286 26q16 1 23.5 -16.5
t5 -51.5t-13.5 -81q-78 -314 -129 -539q-9 -36 -11 -57t2 -29t13 -8q15 0 63 33t88 70z" />
    <glyph glyph-name="f_l" unicode="fl" horiz-adv-x="1089" 
d="M688 889l-43 -68l-201 -18q-12 -68 -32 -186t-37 -210t-39 -196q-51 -247 -110.5 -380.5t-153.5 -225.5q-63 -64 -125 -94.5t-109 -30.5q-44 0 -82.5 26t-38.5 60q0 23 17 49t43 45q23 15 41 0q24 -21 59.5 -36t65.5 -15q54 0 86 41q60 69 137 510q26 155 59 368t43 277
h-164l-6 22l62 62h125q48 262 200 409q66 68 160 112t172 44q48 0 89.5 -14t62.5 -35q105 49 125 49q23 0 10 -65q-155 -720 -244 -1170q-6 -35 -6 -54t3.5 -25.5t12.5 -6.5q18 0 67.5 34.5t84.5 74.5l31 -49q-69 -91 -167.5 -154.5t-150.5 -63.5q-87 0 -35 261
q44 210 108 522t107 520q-20 34 -65.5 62t-101.5 28q-61 0 -109 -36t-81.5 -104t-56.5 -150t-40 -189h227z" />
    <glyph glyph-name=".notdef" horiz-adv-x="1024" 
d="M0 0v1434h1024v-1434h-1024zM512 809l348 522h-696zM573 717l349 -522v1044zM164 102h696l-348 523zM102 1239v-1044l349 522z" />
    <glyph glyph-name=".null" horiz-adv-x="0" 
 />
    <glyph glyph-name="nonmarkingreturn" horiz-adv-x="682" 
 />
    <glyph glyph-name="space" unicode=" " horiz-adv-x="464" 
 />
    <glyph glyph-name="exclam" unicode="!" horiz-adv-x="534" 
d="M459 1360q62 0 87 -16.5t19 -49.5q-4 -20 -45 -159q-36 -122 -104.5 -362.5t-104.5 -362.5q-9 -12 -36.5 -12t-30.5 12q10 121 32.5 361.5t32.5 361.5q11 121 19 165q6 33 36.5 47.5t94.5 14.5zM207 -25q-49 0 -80 34t-31 85q0 63 37.5 103.5t95.5 40.5q49 0 80 -34.5
t31 -88.5q0 -64 -39 -102t-94 -38z" />
    <glyph glyph-name="quotedbl" unicode="&#x22;" horiz-adv-x="722" 
d="M487 1454l21 -18q-16 -62 -74.5 -211t-103.5 -236l-68 -28q57 324 62 444zM817 1454l19 -18q-16 -61 -75.5 -210.5t-103.5 -236.5l-65 -28q59 346 59 444z" />
    <glyph glyph-name="numbersign" unicode="#" horiz-adv-x="983" 
d="M997 936l-24 -127h-189l-82 -279h168l-24 -127h-180l-107 -362h-86l105 362h-222l-106 -362h-86l104 362h-192l26 127h205l82 279h-186l26 127h199l94 317h86l-94 -317h221l94 317h86l-94 -317h176zM698 809h-221l-82 -279h221z" />
    <glyph glyph-name="dollar" unicode="$" horiz-adv-x="983" 
d="M942 926l-59 -6q-16 238 -187 276l-88 -457l43 -28q57 -36 95 -66t74 -70.5t53.5 -89.5t17.5 -108q0 -110 -61 -194t-156 -127t-207 -48l-33 -172h-76l35 172q-111 8 -194 46.5t-117 76.5q0 148 -4 283l57 6q7 -43 18 -83.5t33 -86t51 -80t73.5 -60t97.5 -32.5l94 506
l-41 26q-110 64 -172 140t-62 176q0 155 118.5 247.5t289.5 94.5l31 155h75l-30 -157q98 -5 241 -78q-2 -26 -10 -262zM541 774l82 428q-113 -3 -173.5 -66.5t-60.5 -148.5q0 -65 37.5 -115t114.5 -98zM569 549l-88 -473q112 9 173 76t61 165q0 73 -34.5 125t-111.5 107z
" />
    <glyph glyph-name="percent" unicode="%" horiz-adv-x="1560" 
d="M1366 1288l-1020 -1347l-57 51l1018 1345zM788 1020q0 -63 -16.5 -128t-49.5 -124t-76.5 -105.5t-102.5 -74t-123 -27.5q-113 0 -172.5 81.5t-59.5 199.5q0 107 44.5 211t131 175.5t191.5 71.5q78 0 132.5 -40.5t77.5 -102t23 -137.5zM641 1077q0 160 -94 160
q-52 0 -94.5 -49t-66 -120.5t-36 -141t-12.5 -121.5q0 -180 94 -180q54 0 97 53.5t66 130.5t34.5 147.5t11.5 120.5zM1470 434q0 -63 -16.5 -128t-49.5 -124t-76.5 -105.5t-102.5 -74t-123 -27.5q-114 0 -173 81t-59 200q0 107 44.5 211t131 176t191.5 72q78 0 132.5 -41
t77.5 -102.5t23 -137.5zM1323 489q0 162 -94 162q-52 0 -94.5 -48.5t-66.5 -120t-37 -141.5t-13 -124q0 -178 94 -178q44 0 81.5 36t60.5 89.5t39.5 117.5t23 116.5t6.5 90.5z" />
    <glyph glyph-name="ampersand" unicode="&#x26;" horiz-adv-x="1564" 
d="M1481 840h65q6 -58 6 -125q0 -64 -9 -111.5t-21.5 -72t-29.5 -39t-29 -18t-25 -3.5q-38 0 -97 43q-14 9 -60 43t-67 47q-69 -256 -198 -405q-192 -224 -453 -224q-184 0 -307 124.5t-123 338.5q0 233 168 410q60 60 128.5 100.5t121.5 40.5q57 0 90 -41t33 -106
q0 -22 -4 -49l4 -2q49 47 86 88t77.5 96.5t62.5 115t22 117.5q1 15 -1 29t-7 30.5t-5 18.5q-6 29 20.5 58.5t63.5 29.5q39 0 62.5 -32t23.5 -85q0 -169 -243 -409q-230 -230 -535 -416q24 -142 121 -221.5t229 -79.5q178 0 309.5 139.5t192.5 376.5q-40 27 -60.5 39.5
t-49.5 23.5t-56 11q-40 0 -62 -24.5t-22 -61.5q0 -52 21 -90q16 -26 16 -39q-3 -19 -28.5 -32t-49.5 -13q-35 0 -60.5 32t-25.5 74q0 97 123 189q41 32 92.5 53.5t79.5 21.5q95 0 313 -165q40 -31 58 -31q36 0 39 205zM471 883q-63 0 -121.5 -97.5t-58.5 -240.5q0 -27 2 -39
q50 29 128 84.5t116 93.5q12 46 12 76q0 53 -21.5 88t-56.5 35z" />
    <glyph glyph-name="quotesingle" unicode="'" horiz-adv-x="397" 
d="M487 1454l21 -18q-16 -61 -74.5 -209.5t-103.5 -237.5l-68 -28q25 137 42.5 267t19.5 177z" />
    <glyph glyph-name="parenleft" unicode="(" horiz-adv-x="702" 
d="M772 1456l35 -49q-226 -152 -362 -448.5t-136 -634.5q0 -176 41 -345.5t131 -283.5l-49 -41q-136 110 -204 301t-68 397q0 371 168.5 669t443.5 435z" />
    <glyph glyph-name="parenright" unicode=")" horiz-adv-x="688" 
d="M291 1415l49 41q146 -116 215.5 -329t50.5 -451q-14 -333 -176.5 -610.5t-429.5 -411.5l-35 49q147 100 256.5 262.5t167.5 352.5t66 391q18 201 -24 396.5t-140 309.5z" />
    <glyph glyph-name="asterisk" unicode="*" horiz-adv-x="815" 
d="M895 1042v-55l-277 -37l64 -284l-49 -21l-129 275l-260 -142l-31 49l223 179l-205 225l37 43l238 -180l135 268l53 -19l-73 -282z" />
    <glyph glyph-name="plus" unicode="+" horiz-adv-x="1224" 
d="M1130 467h-428v-467h-122v467h-430v108h430v422h122v-422h428v-108z" />
    <glyph glyph-name="comma" unicode="," horiz-adv-x="491" 
d="M14 -236l-22 60q81 35 131 83.5t51 106.5q3 93 -94 123q-22 7 -19 31q1 44 33.5 74t73.5 30q65 0 109.5 -61.5t39.5 -142.5q-2 -60 -29.5 -112t-72 -88.5t-94.5 -62t-107 -41.5z" />
    <glyph glyph-name="hyphen" unicode="-" horiz-adv-x="686" 
d="M614 522l-36 -119h-480l37 119h479z" />
    <glyph glyph-name="period" unicode="." horiz-adv-x="491" 
d="M186 -25q-46 0 -76 32t-30 81q0 59 36 97t91 38q46 0 75 -32t29 -82q0 -61 -37.5 -97.5t-87.5 -36.5z" />
    <glyph glyph-name="slash" unicode="/" horiz-adv-x="659" 
d="M739 1360l-655 -1452h-113l654 1452h114z" />
    <glyph glyph-name="zero" unicode="0" horiz-adv-x="983" 
d="M659 1300q90 0 155.5 -41t100.5 -111.5t49.5 -153t10.5 -177.5q-3 -103 -25 -214t-67 -224t-107 -202t-153.5 -145.5t-198.5 -56.5q-90 0 -156.5 41t-102.5 112t-51.5 157.5t-11.5 187.5q2 82 19 172.5t47 183.5t78 177t107 150t138.5 105t167.5 39zM647 1231
q-68 0 -126.5 -57t-98.5 -146t-69.5 -199.5t-44 -215t-17.5 -195.5q-3 -76 2 -138.5t20 -117.5t46 -86t77 -31q66 0 124 62t96.5 156.5t68 210.5t44 219.5t17.5 187.5q3 69 -1 126t-17.5 110t-44.5 83.5t-76 30.5z" />
    <glyph glyph-name="one" unicode="1" horiz-adv-x="983" 
d="M776 1300l-203 -1048q-9 -48 -13 -72.5t-0.5 -49t12.5 -34.5t34 -19.5t54.5 -13.5t84.5 -8l-14 -55h-575l12 55q52 5 78 8.5t53 13.5t37.5 19t23 34t18.5 49.5t15 72.5l148 749q9 39 10.5 62t-2 39.5t-19 23.5t-36.5 10t-60 3l-69 2l12 53q215 29 399 106z" />
    <glyph glyph-name="two" unicode="2" horiz-adv-x="983" 
d="M225 1020l131 168q122 112 275 112q148 0 235.5 -87t87.5 -236q0 -45 -11 -88.5t-26.5 -79t-48.5 -79t-59 -73.5t-78 -78t-86 -77.5t-100 -85.5l-293 -256h358q89 0 129.5 22t98.5 107l53 -25q-33 -70 -115 -264h-770l4 45q248 207 404 356q81 78 137.5 139.5t108.5 132
t78 138t26 131.5q0 98 -52 157.5t-161 59.5q-142 0 -281 -182z" />
    <glyph glyph-name="three" unicode="3" horiz-adv-x="983" 
d="M260 1063l100 127q114 110 269 110q126 0 201 -71.5t75 -177.5q0 -110 -96 -187q-66 -51 -158 -104v-4q110 -30 176 -106.5t66 -186.5q0 -207 -227 -361q-87 -61 -188.5 -94t-176.5 -33q-57 0 -113 21t-88 51q-49 43 -43 86q7 42 60 76q23 18 43 -2q35 -36 64.5 -60
t82 -45.5t109.5 -21.5q123 0 201.5 83.5t78.5 242.5q0 118 -67 181.5t-166 63.5q-50 0 -117 -16l-12 57q385 108 385 314q0 80 -45.5 125t-124.5 45q-40 0 -76 -13.5t-67.5 -39t-53.5 -48.5t-49 -57z" />
    <glyph glyph-name="four" unicode="4" horiz-adv-x="983" 
d="M954 457l-18 -92h-193l-22 -132q-8 -41 -11.5 -64.5t0 -44.5t10.5 -30.5t28 -18.5t44.5 -12.5t67.5 -7.5l-12 -55h-533l13 55q49 4 75.5 7t51.5 12t36 17.5t22 31t16.5 45t13.5 65.5l26 132h-526l14 59q451 552 766 864h99l-160 -831h192zM719 1079h-6
q-254 -277 -520 -622h393z" />
    <glyph glyph-name="five" unicode="5" horiz-adv-x="983" 
d="M969 1276l-64 -160h-477l-113 -364q154 49 215 49q163 0 260 -95t97 -231q0 -116 -68 -219.5t-192 -179.5q-78 -48 -162.5 -74.5t-153.5 -26.5t-131 24t-94 56q-40 40 -35 80q3 20 20.5 43t39.5 35q22 14 45 -6q122 -127 264 -127q125 0 199.5 84t74.5 237
q0 133 -71.5 210t-214.5 77q-87 0 -183 -33l-14 19l168 602h590z" />
    <glyph glyph-name="six" unicode="6" horiz-adv-x="983" 
d="M1024 1313l14 -66q-102 -15 -227 -67q-336 -142 -463 -455l2 -4l127 61q76 35 125 35q147 0 236.5 -97.5t89.5 -256.5q0 -100 -38 -191t-101.5 -155.5t-148.5 -103t-177 -38.5q-169 0 -270 119.5t-101 308.5q0 297 182 525t484 323q125 40 266 62zM508 705
q-85 0 -184 -62q-41 -109 -41 -250q0 -92 21.5 -168.5t70.5 -128t119 -51.5q109 0 176 112t67 271q0 54 -11 100t-36 87.5t-71.5 65.5t-110.5 24z" />
    <glyph glyph-name="seven" unicode="7" horiz-adv-x="983" 
d="M1073 1276l14 -25q-135 -223 -401 -646t-379 -607l-176 -23l-12 25q482 597 796 1116h-432q-93 0 -130 -25.5t-91 -127.5l-57 18q35 87 90 295h778z" />
    <glyph glyph-name="eight" unicode="8" horiz-adv-x="983" 
d="M643 1300q127 0 219 -77.5t92 -206.5q0 -53 -25 -105t-67 -88q-100 -74 -186 -129q56 -41 91.5 -72.5t69.5 -73t50 -88t16 -100.5q0 -159 -134.5 -272t-319.5 -113q-100 0 -183 36t-135.5 110t-52.5 174q0 123 112 215q68 55 226 152q-78 60 -123 127.5t-45 158.5
q0 146 116.5 249t278.5 103zM614 1231q-87 0 -142.5 -63.5t-55.5 -153.5q0 -66 33.5 -122.5t63.5 -81.5t91 -67q9 -7 14 -10q170 115 170 287q0 94 -48 152.5t-126 58.5zM477 45q104 0 172 72.5t68 189.5q0 40 -13 76.5t-31.5 64.5t-53.5 60t-65.5 55t-80.5 58
q-213 -133 -213 -326q0 -108 58.5 -179t158.5 -71z" />
    <glyph glyph-name="nine" unicode="9" horiz-adv-x="983" 
d="M631 1300q91 0 161.5 -36.5t112.5 -98.5t63 -137t21 -158q0 -149 -48 -285t-132.5 -242t-195 -186.5t-238.5 -127.5q-71 -26 -154.5 -43t-126.5 -17l-8 62q138 26 264.5 96t234 190t163.5 271l-144 -68q-63 -28 -115 -28q-131 0 -221 95t-90 247q0 123 62.5 230.5
t167 171.5t223.5 64zM608 1231q-103 0 -171 -103.5t-68 -244.5q0 -124 58 -198.5t169 -74.5q41 0 89.5 16t78.5 38q39 111 39 247q0 36 -3 71.5t-15 83t-32 82t-57.5 59t-87.5 24.5z" />
    <glyph glyph-name="colon" unicode=":" horiz-adv-x="491" 
d="M279 600q-47 0 -77 32.5t-30 80.5q0 60 34.5 97.5t90.5 37.5q45 0 74.5 -32t29.5 -83q0 -59 -36.5 -96t-85.5 -37zM186 -25q-49 0 -77.5 31.5t-28.5 81.5q0 59 35 97t90 38q46 0 76 -33t30 -84q0 -60 -37.5 -95.5t-87.5 -35.5z" />
    <glyph glyph-name="semicolon" unicode=";" horiz-adv-x="491" 
d="M272 600q-46 0 -76 33.5t-30 81.5q0 59 35 96t90 37q46 0 76 -32t30 -83q0 -59 -37.5 -96t-87.5 -37zM14 -236l-24 60q86 35 135 83.5t49 104.5q0 96 -94 125q-22 7 -19 31q1 44 33.5 74t73.5 30q66 0 108.5 -59.5t42.5 -134.5q0 -63 -27 -117t-72.5 -91.5t-96.5 -63
t-109 -42.5z" />
    <glyph glyph-name="less" unicode="&#x3c;" horiz-adv-x="1222" 
d="M1063 0l-928 467v104l928 467v-118l-803 -400v-4l803 -397v-119z" />
    <glyph glyph-name="equal" unicode="=" horiz-adv-x="1224" 
d="M1135 655h-996v107h996v-107zM1135 281h-996v106h996v-106z" />
    <glyph glyph-name="greater" unicode="&#x3e;" horiz-adv-x="1222" 
d="M1133 467l-926 -467v119l801 397v4l-801 400v118l926 -467v-104z" />
    <glyph glyph-name="question" unicode="?" horiz-adv-x="733" 
d="M418 436l-43 -41q-68 34 -125 101t-57 139q0 76 59 137.5t162 124.5q140 81 187 122q67 57 67 107q0 44 -29 70.5t-80 26.5q-59 1 -113.5 -26t-88.5 -54t-42 -27q-24 0 -48.5 29.5t-24.5 64.5q0 41 57 80q44 32 97.5 51t92.5 19q112 0 195.5 -91.5t83.5 -211.5
q0 -74 -33 -129.5t-106 -100.5q-169 -110 -192 -127q-77 -58 -86 -108q-1 -8 -1 -17q0 -68 68 -139zM274 -25q-50 0 -81 33.5t-31 85.5q0 63 37.5 103.5t95.5 40.5q50 0 81.5 -34.5t31.5 -88.5q0 -63 -40 -101.5t-94 -38.5z" />
    <glyph glyph-name="at" unicode="@" horiz-adv-x="1517" 
d="M1110 -43l20 -59q-189 -105 -407 -105q-123 0 -232.5 41t-194.5 117t-135 194.5t-50 262.5q0 142 44.5 267t121 217t176.5 158.5t215 100t233 33.5q134 0 243 -42t178.5 -115t107 -168.5t36.5 -203.5q0 -139 -65 -256t-180 -185.5t-254 -68.5q-50 0 -73.5 19.5t-23.5 52
t9 76.5l24 104l-4 2q-58 -82 -167.5 -168t-172.5 -86q-41 0 -70.5 47t-29.5 125q0 99 43 206.5t127 185.5q68 63 156 103.5t178 41.5q13 1 33 -2t43.5 -8t31.5 -6q45 -9 66 -9q-66 -258 -111 -471q-14 -71 -7 -98.5t38 -26.5q51 1 103.5 27.5t100 76t77.5 133t30 185.5
q0 209 -136 328t-347 119q-186 0 -331.5 -86.5t-225.5 -240t-80 -347.5q0 -80 17 -154t58 -145.5t101.5 -124.5t155.5 -85t213 -32q173 0 317 70zM877 774q-77 0 -134 -63q-46 -51 -85 -151.5t-40 -199.5q0 -86 44 -86q34 0 107.5 64t156.5 190q33 99 59 224q-37 22 -108 22
z" />
    <glyph glyph-name="A" unicode="A" horiz-adv-x="1361" 
d="M1274 57l-14 -57h-498l16 57q70 7 99.5 19t37 38t-1.5 70q-7 48 -24 152t-23 139h-422q-77 -141 -137 -270q-15 -31 -22.5 -50.5t-8 -36.5t6 -26t25.5 -16.5t44.5 -11t67.5 -7.5l-14 -57h-445l16 57q53 8 78 14.5t54.5 29t52 57t61.5 104.5l611 1079l71 19l53 -340
q50 -310 134 -776q8 -43 13 -66.5t14.5 -46.5t19.5 -33t30.5 -19.5t43 -13.5t61.5 -8zM852 565l-80 516h-4q-37 -69 -133.5 -245t-145.5 -271h363z" />
    <glyph glyph-name="B" unicode="B" horiz-adv-x="1202" 
d="M264 1329h490q395 0 395 -282q0 -67 -26.5 -122.5t-74 -94t-106 -64t-129.5 -39.5v-4q132 -27 216.5 -107.5t84.5 -212.5q0 -110 -62.5 -194.5t-170.5 -136.5q-151 -72 -422 -72h-447l15 57q43 4 67 7.5t47.5 12.5t34 19t22 33t18 48.5t15.5 70.5l164 846q6 31 9.5 51
t3.5 39t-2 29.5t-10.5 21t-18.5 15.5t-30 9.5t-40.5 7t-54.5 5.5zM510 752h94q166 0 255 78.5t89 213.5q0 60 -20 104t-54 68t-73.5 35t-85.5 11q-62 0 -92 -21q-26 -19 -39 -92zM496 682l-82 -428q-7 -38 -7.5 -67t6.5 -49t19.5 -33t33 -20t44.5 -10t57 -3q144 0 239 94
t95 248q0 74 -24.5 127.5t-69.5 83t-99 43.5t-120 14h-92z" />
    <glyph glyph-name="C" unicode="C" horiz-adv-x="1306" 
d="M1196 362l55 -28q-28 -67 -78.5 -166t-82.5 -148q-201 -51 -355 -51q-174 0 -308.5 66.5t-214 201t-79.5 320.5q0 144 43.5 271t122 224t184.5 167t235.5 106.5t270.5 36.5q164 0 352 -66q-9 -226 -16 -319l-63 -6q-12 177 -88 246t-230 69q-169 0 -306 -101t-211.5 -266
t-74.5 -356q0 -149 46 -265.5t138.5 -185.5t219.5 -69q72 0 134 22.5t115.5 68.5t97 99t93.5 129z" />
    <glyph glyph-name="D" unicode="D" horiz-adv-x="1458" 
d="M264 1329h512q154 0 274 -32.5t207.5 -99t134 -174t46.5 -251.5q0 -193 -88 -356t-250 -264q-129 -81 -281.5 -116.5t-351.5 -35.5h-451l15 57q63 6 94 13.5t54 30.5t31.5 52.5t20.5 94.5l160 829q9 46 12.5 70.5t0.5 48.5t-10 34t-28 19.5t-46 13.5t-70 9zM588 1135
l-164 -867q-14 -76 -9.5 -111.5t31.5 -52.5q46 -28 140 -28q118 1 220 37.5t178 102t130 154t81.5 194t27.5 220.5q0 225 -121.5 349.5t-341.5 126.5q-93 0 -129 -23q-15 -9 -24.5 -30.5t-18.5 -71.5z" />
    <glyph glyph-name="E" unicode="E" horiz-adv-x="1148" 
d="M260 1329h899q-10 -68 -39 -315l-61 -4q-3 139 -29 182q-18 38 -55 51.5t-141 13.5h-148q-54 0 -67.5 -13t-24.5 -70l-84 -439h186q40 0 65 1.5t47.5 4t36.5 11t26 17t22 28t17.5 37.5t19.5 51h61l-78 -393h-61q1 34 1 49.5t-2 37.5t-5 29t-12.5 19t-20.5 14.5t-31.5 6.5
t-43 4.5t-58.5 0.5h-186l-68 -358q-15 -85 -13.5 -128.5t21.5 -62.5q22 -19 65.5 -24.5t135.5 -5.5q110 0 166.5 14.5t97.5 54.5q60 55 139 195l60 -21q-97 -248 -127 -317h-967l14 57q68 6 99 12t56 28t34.5 53t23.5 98l160 833q9 45 13 70.5t1 48.5t-10.5 33t-29.5 19
t-47 12.5t-72 7.5z" />
    <glyph glyph-name="F" unicode="F" horiz-adv-x="1085" 
d="M266 1329h895q-2 -21 -37 -313l-61 -6q-3 126 -25 178q-16 39 -55.5 54t-142.5 15h-156q-51 0 -65 -13.5t-25 -67.5l-88 -463h207q48 0 75.5 1t52.5 8t37 13.5t27 27.5t22.5 39t24.5 58h62l-80 -397h-60q0 45 -0.5 66t-7 44t-16 30.5t-32 15.5t-49.5 9t-75 1h-207
l-69 -373q-8 -46 -11.5 -73t1.5 -50.5t14 -34.5t33.5 -20.5t53 -13t79.5 -7.5l-15 -57h-553l13 57q42 4 65.5 7.5t46 13t33.5 20t22 34.5t17.5 50.5t15.5 73.5l156 815q9 50 13 75.5t1.5 51t-8.5 34.5t-27.5 19t-45 13t-70.5 8z" />
    <glyph glyph-name="G" unicode="G" horiz-adv-x="1400" 
d="M1346 975l-64 -6q-3 171 -85 245t-241 74q-176 0 -315 -100t-213 -264t-74 -357q0 -235 114 -379.5t316 -144.5q94 0 149 32t71 111l38 189q8 43 11.5 65t-2 44t-13.5 30t-36.5 17t-56.5 12.5t-87 9.5l14 55h521l-15 -55q-32 -5 -48.5 -8t-34 -11.5t-25 -17.5
t-16.5 -30.5t-14 -44.5t-13 -66l-33 -168q-19 -99 -10 -160q-12 -3 -93 -24t-116 -28t-101.5 -16.5t-123.5 -9.5q-181 0 -319 67.5t-217 201t-79 317.5q0 174 65 324.5t179 256.5t276 166t351 60q169 0 364 -64q-14 -147 -24 -323z" />
    <glyph glyph-name="H" unicode="H" horiz-adv-x="1527" 
d="M1622 1329l-14 -57q-43 -4 -67.5 -7.5t-47 -13t-33 -19.5t-21.5 -34.5t-17 -49t-15 -71.5l-158 -825q-9 -46 -12 -71.5t0 -49t10.5 -34t29 -20t46.5 -13t70 -7.5l-13 -57h-536l12 57q45 4 70.5 7.5t49 13.5t34.5 20t22 34.5t16.5 49t14.5 70.5l78 407h-647l-76 -407
q-9 -46 -13 -72t-0.5 -49.5t11 -34t29.5 -19.5t47 -12.5t71 -7.5l-14 -57h-526l14 57q42 4 66 7.5t45.5 13.5t31 19.5t20.5 35t16 48.5t15 71l160 825q9 46 13 72t0.5 49.5t-11 34t-30 19.5t-47.5 12.5t-72 7.5l14 57h524l-14 -57q-40 -4 -63 -7.5t-44.5 -12.5t-32 -20
t-21.5 -34t-17.5 -49.5t-14.5 -71.5l-63 -329h647l62 329q9 46 13 71.5t1 49t-10.5 34t-28 20t-45 13t-68.5 7.5l13 57h526z" />
    <glyph glyph-name="I" unicode="I" horiz-adv-x="698" 
d="M791 1329l-13 -57q-44 -4 -68 -7t-46.5 -12t-32.5 -17.5t-21 -31.5t-16 -44.5t-14 -65.5l-164 -850q-8 -44 -11.5 -69t0 -47.5t11.5 -33t30 -19t47.5 -12t71.5 -6.5l-12 -57h-539l15 57q43 3 68 6.5t47 13t32.5 19t21.5 33t16.5 47t14.5 68.5l166 850q8 41 11 65t-1 45
t-12 31t-30.5 18.5t-48 11.5t-72.5 7l14 57h535z" />
    <glyph glyph-name="J" unicode="J" horiz-adv-x="669" 
d="M782 1329l-12 -57q-43 -5 -63.5 -8.5t-43.5 -12.5t-32 -18.5t-19.5 -32t-16 -47.5t-13.5 -70l-152 -815q-37 -198 -103.5 -314.5t-185.5 -184.5q-91 -56 -176 -66l-18 66q164 46 225 221q36 95 80 317l145 776q6 34 9 55.5t2.5 42t-2.5 31.5t-11.5 21.5t-19 15.5
t-31.5 10t-41 7.5t-55 5.5l14 57h520z" />
    <glyph glyph-name="K" unicode="K" horiz-adv-x="1347" 
d="M1477 1329l-15 -55q-110 -15 -164 -39t-149 -100q-89 -71 -438 -373q74 -128 178 -290t182 -273q60 -82 99 -106.5t124 -35.5l-14 -57h-311q-221 341 -371 594q-28 49 -54.5 62t-56.5 -3l-71 -391q-9 -50 -13 -76.5t-1.5 -52t9.5 -36t28 -20.5t45 -13t69 -7l-12 -57h-518
l16 57q41 4 63 7.5t44 13t32.5 20.5t21.5 35.5t17.5 52t15.5 76.5l156 813q9 46 13 72t1.5 50t-10 34t-28 19.5t-44.5 13.5t-69 8l14 57h512l-12 -57q-43 -4 -66 -7.5t-45.5 -13.5t-32.5 -20t-21 -34.5t-17 -49t-15 -72.5l-69 -360q73 23 153 90q206 171 406 371
q44 44 40.5 62t-57.5 26l-57 8l14 57h478z" />
    <glyph glyph-name="L" unicode="L" horiz-adv-x="1095" 
d="M997 346l60 -22q-116 -292 -131 -324h-916l15 57q43 3 68 6.5t47.5 12.5t33.5 19t22 33t16.5 46.5t14.5 67.5l166 850q9 43 12.5 67t0 45.5t-10.5 31t-29 18t-46.5 11.5t-71.5 7l12 57h531l-13 -57q-45 -4 -70 -7t-48 -12.5t-33 -17.5t-20.5 -31.5t-15.5 -45t-13 -66.5
l-162 -842q-19 -114 20 -148q20 -17 61.5 -22.5t118.5 -5.5q90 0 144.5 13.5t91.5 49.5q73 73 145 209z" />
    <glyph glyph-name="M" unicode="M" horiz-adv-x="1798" 
d="M1864 1329l-15 -57q-49 -4 -74 -6.5t-50 -12.5t-34.5 -18t-20 -33t-14.5 -47.5t-11 -71.5q-43 -287 -111 -804q-5 -41 -7.5 -66.5t-2 -50t2.5 -37.5t12 -25.5t19 -18t30.5 -11t40 -7.5t54.5 -6l-12 -57h-530l14 57q44 5 66.5 8t45.5 14t32 21.5t20.5 38.5t16.5 56.5
t14 83.5q24 161 69 441t64 408h-6l-666 -1120h-49q-58 334 -203 1102h-6l-147 -532q-83 -309 -95 -392q-11 -69 17.5 -94t136.5 -35l-12 -57h-463l14 57q86 7 125.5 34t65.5 93q37 92 143 447l119 407q16 54 23.5 85.5t7 59.5t-8.5 41t-31.5 24t-53 15.5t-81.5 8.5l17 57
h354q113 -546 215 -999l621 999h344z" />
    <glyph glyph-name="N" unicode="N" horiz-adv-x="1443" 
d="M1571 1329l-12 -57q-90 -4 -124 -31t-55 -98q-36 -121 -80 -348l-153 -811h-70l-602 1077h-6l-104 -533q-45 -227 -52 -344q-4 -70 30.5 -94.5t143.5 -32.5l-12 -57h-475l14 57q81 5 121 31t60 92q29 89 86 352l102 488q16 88 13 120.5t-23 69.5q-19 32 -54.5 44.5
t-117.5 17.5l14 57h309l592 -1024h6l92 490q46 242 54 350q6 71 -29.5 96t-148.5 31l16 57h465z" />
    <glyph glyph-name="O" unicode="O" horiz-adv-x="1456" 
d="M883 1362q246 0 397.5 -164t151.5 -424q0 -162 -56 -309.5t-154 -257t-238.5 -174t-301.5 -64.5q-244 0 -395.5 161t-151.5 421q0 159 57 307t155 259t238.5 178t297.5 67zM868 1288q-112 0 -211 -67.5t-165.5 -176.5t-105 -245t-38.5 -273q0 -140 36 -246.5
t116.5 -171.5t197.5 -65q95 0 179.5 46t145.5 123t105.5 175t66.5 204.5t22 209.5q0 105 -19.5 190.5t-59.5 153.5t-109 105.5t-161 37.5z" />
    <glyph glyph-name="P" unicode="P" horiz-adv-x="1148" 
d="M268 1329h473q215 0 328 -86.5t113 -259.5q0 -104 -43.5 -188.5t-115.5 -137.5t-156.5 -83.5t-174.5 -36.5q-27 -2 -76 -2l-139 43l-61 -322q-9 -46 -12.5 -73t0.5 -50.5t13 -34t34 -20t53 -13.5t80 -8l-13 -57h-559l15 57q44 5 67.5 8t47 12.5t33.5 20t22 34.5t18 50
t16 74l164 825q6 34 9.5 54.5t4 41t-1.5 32t-10.5 22.5t-18.5 16.5t-29.5 10.5t-40 8t-54.5 6zM586 1147l-94 -502q73 -27 145 -27q60 0 118.5 22.5t110 66t83.5 118t32 168.5q0 128 -67.5 198.5t-192.5 70.5q-52 0 -86 -17q-18 -8 -29 -29t-20 -69z" />
    <glyph glyph-name="Q" unicode="Q" horiz-adv-x="1456" 
d="M1366 -285l-16 -45q-62 0 -136 9.5t-116 21.5q-149 44 -441 252l-28 20q-223 17 -358.5 173.5t-135.5 400.5q0 160 57 309t155 260.5t238.5 178.5t297.5 67q246 0 397.5 -164t151.5 -426q0 -178 -68.5 -337t-193 -273t-285.5 -160l26 -18q216 -156 455 -269zM618 49
l148 37q9 -6 26.5 -18t24.5 -17q117 34 210.5 156.5t141.5 279.5t48 312q0 105 -19.5 191t-59.5 154t-109.5 106t-162.5 38q-89 0 -170.5 -44t-144 -120t-109 -173t-70.5 -207t-24 -218q0 -187 70.5 -317t199.5 -160z" />
    <glyph glyph-name="R" unicode="R" horiz-adv-x="1239" 
d="M1210 37l-16 -53h-25q-103 4 -168 27t-103 62t-77 111q-53 100 -137 303q-23 57 -49 76t-80 19h-80l-57 -320q-10 -48 -14 -76t-0.5 -52.5t10.5 -35.5t29 -20.5t46.5 -13t69.5 -7.5l-12 -57h-531l15 57q44 5 67 8t46.5 13t33.5 20t21.5 35t17.5 51.5t16 75.5l160 823
q9 47 12.5 71.5t0.5 48t-9.5 32.5t-28 18t-45 12t-69.5 7l12 57h459q202 0 295 -63q127 -81 127 -252q0 -75 -26 -139.5t-72 -112t-101.5 -81.5t-120.5 -56q51 -135 121 -275q75 -148 127 -217q33 -42 63 -62t72 -34zM489 649h89q138 0 215 51q70 46 110.5 125t40.5 172
q0 129 -61.5 197t-169.5 68q-63 0 -90 -21q-23 -17 -37 -90z" />
    <glyph glyph-name="S" unicode="S" horiz-adv-x="966" 
d="M76 403l59 7q6 -49 20 -97t40.5 -98.5t62.5 -88t89.5 -61.5t117.5 -24q110 0 176 70.5t66 187.5q0 80 -45 145.5t-140 139.5l-59 45q-47 37 -80 67.5t-72 77t-59.5 102t-20.5 115.5q0 163 118 267t302 104q96 0 203 -35q23 -8 54 -21t34 -14q-3 -37 -4 -85.5t-1 -110.5
t-1 -95l-62 -6q-32 297 -245 297q-101 0 -162 -69.5t-61 -163.5q0 -56 26 -105.5t61.5 -84.5t96.5 -81l61 -45q119 -88 180.5 -175t61.5 -203q0 -117 -63.5 -209t-166.5 -139.5t-225 -47.5q-114 0 -214.5 40.5t-141.5 86.5q-1 21 -2.5 124.5t-3.5 182.5z" />
    <glyph glyph-name="T" unicode="T" horiz-adv-x="1241" 
d="M1307 1380h47q-23 -115 -49 -364l-66 -4q0 132 -25 186q-15 35 -58.5 47t-154.5 12h-120l-191 -1009q-8 -44 -11 -70t1.5 -48.5t14 -33.5t33.5 -20t53 -12.5t79 -6.5l-12 -57h-576l15 57q46 3 73.5 6.5t52 13t36 20t23 34t17.5 48t15 69.5l192 1009h-102
q-122 0 -168.5 -12.5t-77.5 -48.5q-44 -52 -102 -184h-64q67 222 97 368h47q14 -33 33.5 -42t62.5 -9h778q38 0 57 10t50 41z" />
    <glyph glyph-name="U" unicode="U" horiz-adv-x="1447" 
d="M1589 1329l-14 -57q-94 -4 -128 -28t-54 -87q-34 -120 -82 -360l-33 -166q-34 -178 -89 -308t-149 -219q-73 -67 -165.5 -101t-188.5 -34q-200 0 -319 111q-157 147 -93 495l97 510q9 44 12 69t0 47.5t-10.5 32.5t-28.5 18.5t-45.5 12t-69.5 7.5l15 57h522l-12 -57
q-43 -4 -65.5 -7t-46 -11.5t-33 -18t-21 -32.5t-17 -48t-14.5 -70l-94 -499q-24 -137 -15 -233t51.5 -156t102 -87.5t137.5 -27.5q180 0 289 136.5t166 428.5l31 150q46 247 53 362q3 62 -34 84.5t-148 28.5l14 57h479z" />
    <glyph glyph-name="V" unicode="V" horiz-adv-x="1384" 
d="M1536 1329l-14 -57q-70 -8 -103.5 -21.5t-66 -49.5t-86.5 -124q-77 -124 -265.5 -456t-355.5 -641h-67q-68 426 -199 1112q-12 62 -22 92.5t-32 50.5t-46 25.5t-78 11.5l16 57h483l-14 -57l-53 -8q-59 -9 -72.5 -27t-5.5 -76q7 -62 31 -198t66 -360.5t63 -338.5h4
q380 682 463 856q39 85 28.5 110.5t-80.5 33.5l-59 8l16 57h449z" />
    <glyph glyph-name="W" unicode="W" horiz-adv-x="1945" 
d="M2068 1329l-12 -57q-45 -6 -68 -12t-45.5 -15.5t-39.5 -32t-33.5 -50.5t-44.5 -83q-116 -222 -522 -1099h-68l-166 997h-6l-481 -997h-70l-125 1097q-5 47 -8.5 73t-12.5 49.5t-17 33.5t-28.5 19.5t-40.5 12.5t-59 7l12 57h480l-15 -57l-51 -6q-61 -9 -75 -32t-7 -106
l88 -831h4l476 1010h65l168 -1014h4q304 661 369 829q32 85 19.5 109t-91.5 35l-51 6l12 57h440z" />
    <glyph glyph-name="X" unicode="X" horiz-adv-x="1314" 
d="M1395 1329l-15 -57q-105 -11 -146 -31.5t-118 -103.5q-76 -83 -332 -394l226 -503q20 -43 31.5 -67t28 -46t28.5 -31.5t37 -18.5t48.5 -12.5t67.5 -7.5l-14 -57h-530l12 57l61 9q57 9 68 27t-10 71q-43 109 -183 428q-216 -272 -317 -426q-34 -49 -26.5 -69.5t69.5 -30.5
l47 -9l-12 -57h-467l14 57q96 9 141.5 32t116.5 97q125 136 397 480l-194 448q-24 54 -38.5 79.5t-40 43.5t-52.5 23.5t-84 11.5l14 57h486l-13 -57l-51 -8q-50 -11 -59.5 -24t4.5 -54q26 -75 162 -369q157 192 274 357q31 46 23.5 63.5t-58.5 26.5l-57 8l12 57h449z" />
    <glyph glyph-name="Y" unicode="Y" horiz-adv-x="1259" 
d="M1413 1329l-16 -57q-98 -11 -139.5 -36t-118.5 -122q-95 -119 -330 -455q-36 -51 -51 -118l-58 -283q-9 -47 -13 -74.5t0.5 -51t12.5 -34.5t33.5 -20t52 -12.5t78.5 -8.5l-14 -57h-565l14 57q47 3 72.5 6t50.5 12.5t36 20t23 35.5t18.5 51.5t16.5 75.5l53 270
q14 59 -10 123q-86 239 -174 471q-19 51 -30.5 74.5t-34 41.5t-47.5 23t-78 11l16 57h485l-14 -57l-70 -10q-49 -7 -58.5 -24.5t5.5 -63.5q116 -326 180 -486q231 325 320 475q31 54 21.5 73t-68.5 28l-60 8l17 57h444z" />
    <glyph glyph-name="Z" unicode="Z" horiz-adv-x="1210" 
d="M1257 1329l13 -29q-570 -692 -989 -1216q95 -10 307 -10q159 0 241.5 12t128.5 51q39 34 74.5 87.5t79.5 140.5l59 -27q-92 -273 -122 -338h-1033l-14 33q646 780 1002 1224h-310q-99 0 -155 -8.5t-79.5 -22t-45.5 -40.5q-54 -61 -107 -195l-61 6q55 198 86 383h43
q18 -34 37 -42.5t65 -8.5h780z" />
    <glyph glyph-name="bracketleft" unicode="[" horiz-adv-x="702" 
d="M793 1442l-15 -60q-47 -4 -70 -6.5t-52 -8.5t-40.5 -10t-27.5 -16t-21.5 -22t-14 -32.5t-12 -42t-10.5 -56.5l-243 -1266q-7 -36 -10.5 -56.5t-3 -42.5t2 -32t14 -22t23 -16t38.5 -10t51.5 -8.5t70.5 -6.5l-14 -60h-357l340 1774h351z" />
    <glyph glyph-name="backslash" unicode="\" horiz-adv-x="768" 
d="M670 -92h-113l-379 1452h113z" />
    <glyph glyph-name="bracketright" unicode="]" horiz-adv-x="702" 
d="M668 1442l-340 -1774h-353l15 60q63 6 90 9t60 13t42.5 17.5t24 32.5t19 48.5t14.5 73.5l241 1266q7 37 11 57t3 42.5t-2 32.5t-14 22t-23 15.5t-39 9.5t-51 8t-71 7l14 60h359z" />
    <glyph glyph-name="asciicircum" unicode="^" horiz-adv-x="1136" 
d="M1036 432h-129l-315 707l-318 -707h-120l393 844h96z" />
    <glyph glyph-name="underscore" unicode="_" horiz-adv-x="1024" 
d="M1024 -256h-1024v102h1024v-102z" />
    <glyph glyph-name="grave" unicode="`" 
d="M662 1024l-62 -18q-17 31 -87 157t-101 178l8 21q17 7 76 18.5t84 8.5q12 -61 43 -195.5t39 -169.5z" />
    <glyph glyph-name="a" unicode="a" horiz-adv-x="1015" 
d="M942 244l27 -49q-81 -99 -173.5 -159.5t-138.5 -60.5q-23 0 -35.5 13.5t-17.5 55t12 118.5l37 180h-4q-106 -151 -252 -272q-118 -95 -196 -95q-48 0 -85.5 60.5t-37.5 173.5q0 154 66 305.5t175 245.5q82 69 189 115.5t205 46.5q43 0 127 -15q69 -13 86 -12l6 -8
q-69 -271 -141 -662q-15 -88 4 -88q14 0 60 33t87 74zM319 117q56 0 185.5 140.5t177.5 242.5q31 106 68 301q-51 28 -132 28q-84 0 -137 -38q-97 -74 -156 -230t-59 -313q0 -131 53 -131z" />
    <glyph glyph-name="b" unicode="b" horiz-adv-x="1001" 
d="M211 1331l4 53q73 8 145.5 25.5t116 31t55.5 13.5q28 0 13 -63q-75 -299 -178 -770h4q121 147 239 224t197 77q68 0 108.5 -63t40.5 -167q0 -169 -89 -340t-224 -262q-168 -115 -317 -115q-53 0 -99.5 26t-70.5 65q-50 77 -13 256q30 149 96 453t97 456q13 69 2.5 83.5
t-68.5 16.5h-59zM432 70q51 0 103 30q90 56 162.5 217.5t72.5 337.5q0 72 -19 108t-49 36q-54 0 -158.5 -86.5t-195.5 -216.5q-18 -54 -37 -162q-12 -78 -8.5 -129t24.5 -81t47 -42t58 -12z" />
    <glyph glyph-name="c" unicode="c" horiz-adv-x="788" 
d="M694 252l31 -47q-93 -108 -205 -169t-207 -61q-104 0 -164.5 78.5t-60.5 222.5q0 132 57 268t156 226q67 61 162.5 106.5t169.5 45.5q66 0 113 -32t47 -73q3 -60 -70 -100q-28 -19 -47 10q-68 96 -156 96q-92 0 -160 -129q-38 -70 -62 -169.5t-24 -200.5q0 -108 38 -164
t104 -56q69 0 148 47.5t130 100.5z" />
    <glyph glyph-name="d" unicode="d" horiz-adv-x="1050" 
d="M975 236l29 -50q-79 -94 -171 -152.5t-141 -58.5q-24 0 -37 14.5t-17.5 57.5t13.5 121l35 166h-4q-100 -138 -262 -266q-124 -93 -199 -93q-59 0 -100 65t-41 183q0 148 64.5 297t174.5 244q72 63 182 110.5t181 47.5q62 0 121 -21l65 326q13 69 -0.5 85.5t-79.5 16.5
h-61l6 53q77 9 152 27t118.5 31.5t55.5 13.5q28 0 14 -59q-153 -659 -250 -1188q-14 -72 8 -72q17 0 59 29.5t85 71.5zM330 117q70 0 197 130.5t186 237.5l63 293q-24 23 -71 38t-91 15q-80 0 -133 -38q-94 -69 -153.5 -230t-59.5 -299q0 -71 18 -109t44 -38z" />
    <glyph glyph-name="e" unicode="e" horiz-adv-x="825" 
d="M723 260l35 -47q-220 -238 -441 -238q-42 0 -79 13.5t-73 44.5t-57.5 93.5t-21.5 149.5q0 148 65 293.5t181 233.5q67 53 146.5 86t146.5 33q83 0 133.5 -48.5t50.5 -117.5q0 -226 -537 -365q-4 -25 -4 -63q0 -60 13 -107.5t49.5 -82t93.5 -34.5q64 0 143 41t156 115z
M545 836q-42 0 -80 -23q-55 -34 -108.5 -120.5t-75.5 -235.5q198 55 280 121.5t82 146.5q0 52 -27.5 81.5t-70.5 29.5z" />
    <glyph glyph-name="f" unicode="f" horiz-adv-x="563" 
d="M160 889h127q57 271 176 401q71 77 154 120.5t147 43.5q54 0 91.5 -29t35.5 -61q-1 -24 -18.5 -50.5t-36.5 -39.5q-31 -21 -54 2q-72 78 -129 78q-39 0 -68.5 -35t-60.5 -140t-61 -290h233l-43 -68l-207 -18q-64 -381 -106 -582q-53 -251 -115 -387t-155 -231
q-63 -64 -123.5 -94.5t-106.5 -30.5q-47 0 -89 28t-42 62q0 44 60 92q22 19 41 0q24 -23 64.5 -39t70.5 -16q52 0 84 43q62 83 133 497q28 166 64.5 390.5t43.5 269.5h-168l-6 22z" />
    <glyph glyph-name="g" unicode="g" horiz-adv-x="870" 
d="M975 913l16 -41q-77 -83 -151 -100q-26 -4 -49 -6q14 -47 14 -109q0 -99 -44 -178.5t-108 -130.5q-105 -86 -272 -121q-36 -25 -39 -59q0 -22 35.5 -49.5t111.5 -67.5q150 -78 215.5 -142t65.5 -132q0 -81 -82 -152t-195 -109t-217 -38q-153 0 -262 67t-108 162
q1 65 85.5 134.5t256.5 156.5q-36 23 -57 51t-19 51q0 53 131 129q-184 40 -184 248q0 99 46.5 189.5t127.5 152.5q61 48 135 75.5t133 27.5q111 0 178 -58q164 3 236 49zM416 309q85 0 154 96.5t69 251.5q0 86 -33 138.5t-96 52.5q-81 0 -145 -98q-72 -111 -72 -263
q0 -84 34 -131t89 -47zM362 -434q109 0 176.5 43t67.5 104q0 75 -143 160q-128 73 -160 88q-97 -47 -154 -104t-57 -113q0 -75 81.5 -126.5t188.5 -51.5z" />
    <glyph glyph-name="h" unicode="h" horiz-adv-x="1054" 
d="M963 225l28 -49q-84 -92 -170.5 -146.5t-136.5 -54.5q-85 0 -39 205l109 467q31 139 -19 139q-65 0 -200 -128.5t-211 -260.5q-37 -153 -78 -383q-79 -12 -162 -39l-14 17q164 749 254 1222q14 80 2.5 96.5t-74.5 18.5h-55l8 53q74 7 146 25t114.5 32.5t52.5 14.5
q15 0 17 -15t-7 -55l-180 -839h4q91 120 188.5 204t178.5 128q79 45 143 45q122 0 60 -269l-103 -442q-9 -44 -7.5 -60t13.5 -16q15 0 58 27t80 63z" />
    <glyph glyph-name="i" unicode="i" horiz-adv-x="567" 
d="M457 1317q42 0 65 -28t23 -70q2 -50 -32.5 -87.5t-84.5 -37.5q-39 0 -63.5 26.5t-26.5 69.5q0 46 33 86.5t86 40.5zM469 229l29 -45q-63 -75 -161 -142t-149 -67q-25 0 -38 15.5t-15.5 61t19.5 128.5l125 512q14 68 -3 68q-13 0 -53.5 -25.5t-83.5 -60.5l-24 49
q87 84 181 141.5t140 57.5q67 0 25 -168l-137 -549q-16 -70 4 -70q18 0 59.5 28.5t81.5 65.5z" />
    <glyph glyph-name="j" unicode="j" horiz-adv-x="552" 
d="M446 1329q41 0 65 -28t24 -68q0 -52 -33 -88.5t-82 -36.5q-40 0 -66.5 26t-27.5 70q0 46 33 85.5t87 39.5zM135 657l-26 50q89 92 186.5 153.5t146.5 61.5q36 0 40 -52t-19 -165q-19 -103 -115 -576q-76 -370 -252 -526q-72 -65 -128.5 -95t-90.5 -30q-33 0 -62.5 20
t-29.5 49q0 23 16.5 51t36.5 44q24 21 45 8q67 -39 107 -39t69.5 47t55.5 158q19 78 39.5 177t35 172t44 229t47.5 247q7 36 10.5 57t3.5 34t-3 17.5t-9 4.5q-14 0 -61.5 -31t-86.5 -66z" />
    <glyph glyph-name="k" unicode="k" horiz-adv-x="968" 
d="M905 209l37 -45q-67 -102 -130 -145.5t-107 -43.5q-36 0 -69 30.5t-69 107.5q-77 168 -149 374q-89 -93 -105 -122q-42 -185 -71 -349q-83 -15 -164 -41l-12 13q182 799 274 1245q12 62 -0.5 77t-73.5 17l-61 2l10 53q75 8 147.5 26t115 32t52.5 14q15 0 17 -14t-6 -45
q-175 -781 -203 -901h4q47 57 172 182q242 246 356 246q39 0 63.5 -20t24.5 -46q0 -45 -43 -88q-19 -19 -32 -12q-32 18 -82 18q-62 0 -132.5 -49t-123.5 -111q51 -170 155 -374q33 -69 53 -96t38 -27q34 0 114 92z" />
    <glyph glyph-name="l" unicode="l" horiz-adv-x="520" 
d="M449 242l30 -49q-80 -93 -174.5 -155.5t-146.5 -62.5q-87 0 -35 252q51 236 211 994q14 69 -0.5 88t-83.5 20l-55 2l8 51q72 8 145 26t117 32t53 14q16 0 18.5 -14.5t-4.5 -48.5q-183 -873 -247 -1184q-15 -74 6 -74q18 0 68 34t90 75z" />
    <glyph glyph-name="m" unicode="m" horiz-adv-x="1615" 
d="M1513 227l27 -51q-79 -89 -167 -145t-132 -56q-88 0 -37 209l111 471q32 129 -19 129q-42 0 -125.5 -74.5t-160 -170t-113.5 -164.5q-40 -153 -80 -361q-89 -12 -166 -39l-14 15q121 493 147 610q22 101 18.5 142.5t-32.5 41.5q-44 0 -128.5 -76t-160.5 -172.5
t-108 -162.5q-28 -91 -86 -359q-83 -12 -162 -39l-16 17q84 316 170 690q5 26 7.5 42.5t1.5 25.5t-3.5 12.5t-8.5 3.5q-14 0 -57.5 -30.5t-81.5 -65.5l-24 51q84 91 168 146t131 55q41 0 46 -60t-26 -190l-35 -142h4q94 130 189 217.5t170 131.5q73 43 131 43q120 0 53 -310
l-18 -77h4q94 131 190.5 217t175.5 129q72 41 127 41q119 0 50 -299l-101 -420q-15 -68 6 -68q13 0 54.5 27.5t80.5 64.5z" />
    <glyph glyph-name="n" unicode="n" horiz-adv-x="1095" 
d="M993 229l31 -51q-88 -97 -171 -150t-130 -53q-87 0 -35 215q41 168 107 449q13 56 14.5 88t-5.5 43.5t-24 11.5q-62 0 -197.5 -139.5t-213.5 -271.5q-45 -183 -82 -355q-85 -12 -162 -41l-14 17q79 302 165 690q7 32 8.5 50.5t-2 25t-10.5 6.5q-14 0 -54.5 -28t-76.5 -64
l-26 53q85 90 168.5 143.5t130.5 53.5q75 0 20 -234l-39 -164h4q89 122 186 210.5t177 137.5q83 50 141 50q19 0 33 -5t26.5 -23.5t17 -49.5t-1.5 -87t-24 -132q-56 -248 -96 -416q-19 -74 4 -74q15 0 53.5 27t77.5 67z" />
    <glyph glyph-name="o" unicode="o" horiz-adv-x="970" 
d="M369 -25q-73 0 -128.5 27t-87 73t-46.5 102t-15 120q0 190 88 338.5t221 218.5q126 68 232 68q132 0 204 -84.5t72 -237.5q0 -138 -57 -273t-162 -223q-153 -129 -321 -129zM444 59q32 0 64 13q83 34 148.5 185t64.5 343q0 118 -43.5 180t-114.5 62q-35 0 -74 -17
q-31 -14 -64.5 -52.5t-67 -100.5t-55 -159t-21.5 -210q0 -114 44 -179t119 -65z" />
    <glyph glyph-name="p" unicode="p" horiz-adv-x="1005" 
d="M502 1055l-37 -158q92 25 190 25q154 0 224.5 -72.5t70.5 -214.5q0 -103 -44.5 -215t-129.5 -207q-74 -85 -178 -149t-205 -89q-66 0 -117 21l-57 -283q-9 -46 -10 -70t9.5 -40.5t30.5 -22.5t60 -10l49 -4l-8 -55l-487 -25l10 53q95 19 125.5 48t50.5 122
q33 155 110 512.5t117 546.5q-77 -23 -165 -74l-15 56q76 52 197 100l22 92q57 65 166 125zM446 815l-139 -680q19 -26 54.5 -47t68.5 -20q69 0 146.5 78.5t131.5 206t54 253.5q0 124 -55 173.5t-150 49.5q-59 0 -111 -14z" />
    <glyph glyph-name="q" unicode="q" horiz-adv-x="1001" 
d="M864 -436l-10 -53l-485 -25l10 53l35 8q50 11 73.5 24t39 44.5t28.5 95.5l127 615h-4q-45 -58 -112.5 -125t-135.5 -121q-132 -105 -219 -105q-58 0 -96.5 66.5t-38.5 169.5q0 156 66 301t173 240q66 57 156 100.5t156 56.5q67 13 110 13q78 0 185 -31l34 -8
q-52 -204 -96 -449l-131 -710q-8 -40 -9.5 -64.5t1.5 -41.5t16 -26t29 -13.5t47 -8.5zM629 829q-85 0 -146 -45q-99 -73 -159 -225.5t-60 -294.5q0 -69 18 -106t46 -37q65 0 181.5 112t186.5 224q54 220 72 342q-52 30 -139 30z" />
    <glyph glyph-name="r" unicode="r" horiz-adv-x="757" 
d="M125 670l-29 49q78 86 164 144.5t131 58.5q79 0 29 -238l-21 -100h7q78 151 160.5 244.5t142.5 93.5q28 0 53 -15.5t37 -38.5q28 -42 -2 -94q-23 -38 -58 -63q-28 -21 -47 -2q-33 36 -71 36q-40 0 -99 -83q-94 -132 -141 -250q-31 -132 -82 -398q-81 -13 -160 -39l-16 17
q94 386 147 682q9 51 8.5 70.5t-12.5 19.5q-15 0 -58.5 -28t-82.5 -66z" />
    <glyph glyph-name="s" unicode="s" horiz-adv-x="696" 
d="M233 -25q-75 0 -143.5 48t-69.5 104q0 53 64 90q35 18 53 -6q42 -61 97 -95t108 -34q56 0 91.5 34t35.5 81q0 39 -26 76t-97 92q-45 35 -68.5 55.5t-54.5 54t-45 68.5t-14 75q0 111 110 203q50 43 116 72t118 29q67 0 115.5 -37.5t48.5 -81.5q0 -26 -15.5 -50.5
t-40.5 -39.5q-28 -17 -47 8q-76 98 -163 98q-44 0 -74.5 -30t-30.5 -78t34 -88t101 -91q95 -69 135.5 -122.5t40.5 -120.5q0 -77 -59.5 -151t-148 -118.5t-171.5 -44.5z" />
    <glyph glyph-name="t" unicode="t" horiz-adv-x="634" 
d="M702 889l-55 -74l-201 -10l-116 -555q-10 -49 -11 -76.5t5 -37t18 -9.5q24 0 82 38.5t98 78.5l29 -47q-64 -77 -164 -149.5t-174 -72.5q-29 0 -46.5 24.5t-22 85.5t19.5 165l119 555h-150l-6 18l51 66h123l47 192l170 133l21 -14l-72 -311h235z" />
    <glyph glyph-name="u" unicode="u" horiz-adv-x="1095" 
d="M1014 238l28 -50q-78 -93 -167.5 -153t-139.5 -60q-26 0 -40 18t-16 65.5t19 131.5q20 82 37 172h-4q-74 -102 -160.5 -187.5t-164.5 -139.5q-85 -60 -162 -60q-132 0 -70 269q15 65 51.5 217t55.5 235q16 72 -5 72q-26 0 -139 -94l-24 53q88 86 176.5 140.5t134.5 54.5
q25 0 36 -17t9 -57.5t-18 -110.5q-18 -79 -111 -479q-31 -135 22 -135q52 0 136.5 74t156 165.5t111.5 163.5q58 255 76 342l157 54h23q-108 -440 -158 -705q-9 -49 -7.5 -65.5t13.5 -16.5q13 0 60 32.5t84 70.5z" />
    <glyph glyph-name="v" unicode="v" horiz-adv-x="921" 
d="M465 190h4q303 384 301 525q0 57 -20 90q-12 21 -2 51q11 28 36.5 47t57.5 19q39 0 65.5 -33.5t26.5 -85.5q0 -98 -127 -275q-211 -293 -428 -553h-60q-14 332 -43 639q-13 150 -36 150q-30 0 -119 -105l-35 48q63 89 134.5 152t121.5 63q79 0 94 -232q3 -60 10 -163
t11.5 -185.5t7.5 -151.5z" />
    <glyph glyph-name="w" unicode="w" horiz-adv-x="1376" 
d="M948 199h4q275 379 277 510q0 50 -23 96q-13 27 0 53q11 27 36 45.5t52 18.5q41 0 67 -33.5t25 -87.5q0 -76 -81 -213q-90 -143 -435 -613h-63q-27 319 -62 623h-4q-208 -346 -381 -623h-59q-3 247 -25 660q-3 72 -9.5 100.5t-20.5 28.5q-24 0 -121 -100l-33 43
q69 92 143.5 153.5t124.5 61.5q38 0 57.5 -50.5t22.5 -160.5q8 -328 6 -463h5q262 444 372 643h54q15 -127 38 -362.5t33 -329.5z" />
    <glyph glyph-name="x" unicode="x" horiz-adv-x="972" 
d="M174 657l-37 43q154 222 254 222q39 0 66 -49t67 -171l35 -110q129 185 204 257.5t140 72.5q41 0 65.5 -28t22.5 -65q0 -37 -28.5 -66.5t-55.5 -29.5q-14 0 -33 19q-17 24 -47 24q-40 0 -114 -92q-78 -90 -129 -164l67 -217q55 -176 99 -176t145 119l37 -43
q-71 -112 -141.5 -170t-126.5 -58q-82 0 -142 191l-59 190q-136 -214 -215.5 -297.5t-153.5 -83.5q-40 0 -68 29.5t-28 73.5q1 39 28.5 69.5t57.5 30.5q18 0 35 -20q17 -21 47 -21q41 0 107 74.5t167 222.5l-67 209q-22 73 -38 101t-32 28q-37 0 -129 -115z" />
    <glyph glyph-name="y" unicode="y" horiz-adv-x="915" 
d="M502 162h4q54 81 83.5 128.5t80.5 136.5t76.5 160t25.5 124q0 38 -24 98q-9 25 4 55q12 25 38 41.5t52 16.5q36 0 61 -32t25 -85q3 -88 -74 -219q-147 -263 -362 -566q-221 -318 -373 -485l-223 -57l-17 47q280 183 477 446q-1 116 -21.5 320.5t-43.5 351.5
q-17 121 -43 121q-13 0 -47 -32.5t-70 -84.5l-37 49q60 93 129 159.5t123 66.5q44 0 70.5 -59.5t40.5 -188.5q30 -230 45 -512z" />
    <glyph glyph-name="z" unicode="z" horiz-adv-x="854" 
d="M868 950l41 -45q-41 -53 -125 -143q-104 -117 -542 -561q62 3 157 -33q134 -49 181 -49q43 0 92 38.5t114 135.5l50 -37q-83 -166 -150.5 -232.5t-138.5 -66.5q-68 0 -273 100q-88 42 -133 11q-34 -20 -63 -70q-14 -21 -27 -16q-20 8 -25.5 30.5t17.5 70.5t82 110
q51 53 255.5 256t309.5 315q-53 -12 -129 -6q-117 9 -186 12q-67 0 -110 -41t-95 -131l-53 29q41 96 86 170q77 121 153 121q58 0 211 -25q114 -21 172 -21q57 0 129 78z" />
    <glyph glyph-name="braceleft" unicode="{" horiz-adv-x="702" 
d="M793 1454l-7 -57q-100 -12 -142 -59.5t-56 -127.5q-13 -74 -21 -192q-13 -183 -20 -225q-16 -89 -69 -152t-142 -82l-2 -8q65 -15 98 -59.5t33 -110.5q0 -42 -10.5 -87t-33.5 -112t-30 -90q-3 -11 -15.5 -54.5t-19.5 -68.5t-13.5 -62t-6.5 -63q0 -111 135 -131l-14 -57
q-256 0 -258 194q0 79 65 312q55 189 55 239q0 111 -149 123l14 62q50 3 87 17.5t57.5 30.5t35 43t19 43.5t10.5 45.5q6 33 23 182q11 142 33 252q49 254 344 254z" />
    <glyph glyph-name="bar" unicode="|" horiz-adv-x="501" 
d="M350 -512h-135v2048h135v-2048z" />
    <glyph glyph-name="braceright" unicode="}" horiz-adv-x="702" 
d="M608 586l-14 -62q-49 -3 -86 -17.5t-57 -30.5t-34.5 -43t-19 -43.5t-10.5 -45.5q-7 -36 -20 -182q-14 -145 -35 -252q-49 -254 -346 -254l8 59q97 14 141 60.5t58 120.5q11 66 20 196q13 179 20 223q18 91 70 154t139 82v8q-68 17 -99.5 70t-25.5 133q2 33 12.5 73.5
t31.5 103t26 79.5q3 11 14.5 51t17 61.5t12 52.5t7.5 52q5 70 -25 110t-106 52l15 57q39 0 73.5 -5t71.5 -19.5t62 -38.5t39.5 -65t9.5 -95q-2 -71 -64 -283q-4 -12 -12.5 -42.5t-14 -48.5t-12 -43t-10 -44.5t-4.5 -34.5q-5 -60 28.5 -101.5t118.5 -47.5z" />
    <glyph glyph-name="asciitilde" unicode="~" horiz-adv-x="1159" 
d="M1030 614l78 -43q-70 -233 -262 -233q-64 0 -123.5 24.5t-134.5 69.5q-58 35 -100 50.5t-85 15.5q-63 0 -107.5 -42t-76.5 -132l-76 55q23 57 51.5 99.5t55.5 65.5t58.5 36.5t55 17.5t50.5 4q59 0 111 -17t122 -59q72 -42 119 -61t92 -19q59 0 99 40t73 128z" />
    <glyph glyph-name="uni00A0" unicode="&#xa0;" horiz-adv-x="464" 
 />
    <glyph glyph-name="exclamdown" unicode="&#xa1;" horiz-adv-x="532" 
d="M465 801q0 -62 -38.5 -102t-94.5 -40q-50 0 -81.5 34.5t-31.5 88.5q0 63 39 101.5t96 38.5q47 0 79 -34.5t32 -86.5zM100 -467q-60 0 -85.5 16.5t-20.5 49.5q5 28 45 159q33 111 103 353.5t108 371.5q9 11 35.5 10.5t31.5 -10.5q-12 -146 -67 -723q-8 -116 -17 -163
q-6 -34 -36.5 -49t-96.5 -15z" />
    <glyph glyph-name="cent" unicode="&#xa2;" horiz-adv-x="983" 
d="M766 1268l-33 -162q127 0 209 -64q29 -23 29 -55t-26.5 -60t-49.5 -28q-17 0 -35 21q-64 83 -145 94l-133 -699q5 0 13.5 -1t12.5 -1q136 0 264 109l33 -47q-77 -83 -168 -130t-178 -55l-39 -198h-76l39 201q-144 11 -240 110t-96 264q0 136 72 253.5t187.5 189.5
t250.5 90l33 168h76zM508 328l133 694q-98 -3 -170 -60.5t-106.5 -147t-34.5 -198.5q0 -118 50.5 -193t127.5 -95z" />
    <glyph glyph-name="sterling" unicode="&#xa3;" horiz-adv-x="983" 
d="M786 604h-329q-18 -133 -78.5 -224t-165.5 -169q85 2 217 -57q165 -74 246 -74q110 0 123 84q5 32 -4 72q-9 21 10 47q50 53 84 53q22 0 31.5 -29t1.5 -69q-10 -59 -59.5 -122t-114.5 -104q-107 -67 -197 -67q-17 0 -35.5 3t-33.5 6.5t-37 12.5t-34 14t-37 18t-33.5 17.5
t-36 20t-32.5 18.5q-85 49 -129 49q-50 0 -98 -86q-12 -26 -29 -26q-14 5 -24 15t-10.5 32t18.5 49q26 36 125 131q134 126 141 385h-182l14 76h170q3 87 15 166q32 225 217 364q54 41 116.5 67t110.5 26q66 -1 116 -28t66 -56q19 -36 0 -70q-15 -23 -45 -45q-31 -17 -57 6
q-29 29 -48 44.5t-52.5 30.5t-69.5 15q-134 0 -162 -190q-10 -74 -14 -330h342z" />
    <glyph glyph-name="currency" unicode="&#xa4;" horiz-adv-x="983" 
d="M977 276l-88 -86l-133 154q-97 -78 -221 -78q-130 0 -224 78l-133 -154l-86 86l146 138q-93 107 -93 252q0 148 93 252l-146 139l86 84l133 -154q100 78 226 78q125 0 219 -78l133 154l88 -84l-146 -139q91 -105 91 -252q0 -144 -91 -252zM535 956q-109 0 -182.5 -81.5
t-73.5 -208.5q0 -128 74 -209.5t182 -81.5q110 0 181.5 81t71.5 210q0 128 -72 209t-181 81z" />
    <glyph glyph-name="yen" unicode="&#xa5;" horiz-adv-x="983" 
d="M1128 1276l-10 -55q-78 -9 -115 -33.5t-96 -104.5q-99 -132 -272 -403h221l-16 -74h-238l-31 -143h244l-16 -74h-242l-31 -172q-7 -38 -10 -60t1.5 -41t11.5 -27t30 -15.5t45 -10t68 -6.5l-15 -57h-505l12 57q42 3 64.5 5.5t44.5 10t31.5 15.5t20 28t16 41t13.5 60
l31 172h-231l18 74h227l27 143h-229l16 74h209q-36 182 -107 428q-17 64 -44.5 84.5t-102.5 28.5l10 55h428l-10 -57l-59 -9q-38 -5 -49.5 -19t-2.5 -52q37 -173 93 -420q192 299 251 403q27 47 19 66.5t-55 25.5l-54 7l13 55h376z" />
    <glyph glyph-name="brokenbar" unicode="&#xa6;" horiz-adv-x="501" 
d="M350 666h-135v716h135v-716zM350 -358h-135v716h135v-716z" />
    <glyph glyph-name="section" unicode="&#xa7;" horiz-adv-x="970" 
d="M881 444q0 -239 -267 -475q-171 -150 -335 -180q-87 0 -150 51q-33 30 -33 64q3 20 24 44t40 34q23 11 39 -5q84 -67 174 -67q63 0 113 35.5t51 93.5q3 87 -105 203q-26 28 -56 63t-60.5 71.5t-41.5 49.5q-124 143 -124 291q0 212 231 422q165 151 336 180q51 0 90 -16.5
t59 -36.5q24 -24 21 -54q0 -21 -18 -42t-35 -31q-19 -10 -37 2q-2 1 -14 11t-19.5 16t-24 16t-31.5 15.5t-37.5 10t-45.5 4.5q-64 0 -104 -38t-40 -84q0 -66 64 -136q85 -95 168 -178q168 -168 168 -334zM379 1042l-4 2q-49 -46 -78 -110t-29 -133q0 -133 107 -250l100 -111
q114 -126 143 -198q35 -65 25 -156l2 -2q107 116 107 258t-113 270q-20 23 -94.5 109.5t-98.5 112.5q-83 95 -67 208z" />
    <glyph glyph-name="dieresis" unicode="&#xa8;" 
d="M383 1296q41 0 63.5 -26t22.5 -64q0 -51 -31 -86t-80 -35q-37 0 -61.5 25.5t-24.5 65.5q0 44 30.5 82t80.5 38zM750 1296q41 0 63.5 -26t22.5 -64q0 -51 -31 -86t-80 -35q-37 0 -61.5 25.5t-24.5 65.5q0 44 30.5 82t80.5 38z" />
    <glyph glyph-name="copyright" unicode="&#xa9;" horiz-adv-x="1421" 
d="M762 1284q175 0 317.5 -83.5t222.5 -226.5t80 -315q0 -170 -80 -312t-222.5 -225t-317.5 -83q-131 0 -246.5 49t-197 132t-128.5 197.5t-47 241.5q0 172 80 315t222.5 226.5t316.5 83.5zM764 1212q-148 0 -268 -72.5t-187 -198t-67 -279.5q0 -233 149 -392t373 -159
t372 159t148 392q0 154 -66.5 279.5t-186 198t-267.5 72.5zM1028 537l47 -11q-40 -156 -51 -182q-120 -39 -217 -39t-173.5 30t-123 80.5t-70.5 112t-24 127.5q0 165 116.5 264t282.5 99q117 0 215 -37q3 -19 23 -184l-45 -9q-35 85 -81 126.5t-124 41.5
q-107 0 -169.5 -79.5t-62.5 -206.5q0 -133 68.5 -217t169.5 -84q78 0 129 42t90 126z" />
    <glyph glyph-name="ordfeminine" unicode="&#xaa;" horiz-adv-x="690" 
d="M711 727l16 -41q-51 -56 -112.5 -93.5t-92.5 -37.5q-60 0 -37 104l25 109h-6q-67 -85 -158 -152q-28 -22 -65.5 -41.5t-65.5 -19.5q-32 0 -56 33t-24 108q0 91 41.5 183.5t102.5 146.5q50 43 125.5 75t146.5 32q29 0 72 -9q31 -8 77 -8q-55 -230 -79 -387q-7 -57 4 -57
q10 0 35 15.5t51 39.5zM481 1063q-38 0 -67 -16q-49 -27 -90 -111q-21 -45 -34.5 -102t-13.5 -101q0 -65 29 -65q15 0 47.5 20t63.5 53q54 54 96 127q16 22 30.5 79.5t20.5 99.5q-29 16 -82 16z" />
    <glyph glyph-name="guillemotleft" unicode="&#xab;" horiz-adv-x="921" 
d="M510 795l-219 -340l145 -342l-51 -31q-182 264 -272 373q130 124 350 374zM848 795l-219 -340l147 -342l-53 -31q-195 282 -272 373q130 124 350 374z" />
    <glyph glyph-name="logicalnot" unicode="&#xac;" horiz-adv-x="1224" 
d="M1108 201h-123v448h-858v107h981v-555z" />
    <glyph glyph-name="uni00AD" unicode="&#xad;" horiz-adv-x="686" 
d="M614 522l-36 -119h-480l37 119h479z" />
    <glyph glyph-name="registered" unicode="&#xae;" horiz-adv-x="641" 
d="M410 1354q114 0 190 -79t76 -188q0 -106 -76.5 -184t-189.5 -78t-189 75.5t-76 186.5q0 109 77 188t188 79zM412 1307q-90 0 -148.5 -63.5t-58.5 -156.5q0 -92 59.5 -153.5t147.5 -61.5q89 0 147.5 61.5t58.5 153.5q0 93 -58.5 156.5t-147.5 63.5zM561 973l-6 -25
q-37 0 -59.5 8.5t-40.5 32.5q-33 52 -39 62q-9 14 -27 14h-8v-45q0 -27 6 -32.5t33 -8.5v-29h-139v29q29 3 35 8.5t6 32.5v141q0 27 -6 32t-33 7v31h141q41 0 69.5 -17t28.5 -57q0 -49 -55 -72q25 -46 68 -92q18 -18 26 -20zM381 1176v-76h18q22 0 35 10q23 12 23 41
q0 27 -15.5 38t-33.5 11q-14 0 -20.5 -5t-6.5 -19z" />
    <glyph glyph-name="macron" unicode="&#xaf;" 
d="M776 1227l-26 -113h-463l28 113h461z" />
    <glyph glyph-name="degree" unicode="&#xb0;" horiz-adv-x="720" 
d="M487 1360q117 0 194 -71.5t77 -194.5q0 -129 -88 -210t-217 -81q-117 0 -194 71.5t-77 190.5q0 127 90 211t215 84zM483 1276q-76 0 -128 -58.5t-52 -152.5q0 -76 43.5 -127t114.5 -51q81 0 130.5 58.5t49.5 144.5q0 82 -42.5 134t-115.5 52z" />
    <glyph glyph-name="plusminus" unicode="&#xb1;" horiz-adv-x="1224" 
d="M1116 635h-436v-414h-123v414h-436v106h436v387h123v-387h436v-106zM1116 0h-995v106h995v-106z" />
    <glyph glyph-name="twosuperior" unicode="&#xb2;" horiz-adv-x="673" 
d="M637 1006l43 -21q-49 -102 -80 -174h-502l8 39q168 128 238 190q88 77 139.5 145t51.5 136q0 54 -30 86.5t-89 32.5q-49 0 -90 -31t-84 -82l-37 35l84 100q73 82 192 82q87 0 147 -52.5t60 -145.5q0 -26 -7.5 -52t-17 -46.5t-31 -45.5t-34.5 -39.5t-43.5 -40t-43 -35
t-48 -35.5t-43.5 -32l-119 -92v-4h186q55 0 83 15t67 67z" />
    <glyph glyph-name="threesuperior" unicode="&#xb3;" horiz-adv-x="673" 
d="M272 1358l-36 33l65 79q74 74 182 74q74 0 127.5 -39.5t53.5 -109.5q0 -89 -138 -150v-4q59 -13 101.5 -55t42.5 -105q0 -141 -176 -229q-100 -53 -191 -53q-47 0 -88 16t-57 33q-25 25 -15 55q10 32 43 53q24 13 45 -8q81 -71 152 -71q56 0 95.5 41.5t39.5 109.5
q0 70 -38.5 104.5t-98.5 34.5q-45 0 -76 -14l-10 51q97 21 159 64.5t62 99.5q0 40 -24 63t-68 23q-80 0 -152 -96z" />
    <glyph glyph-name="acute" unicode="&#xb4;" 
d="M793 1354l-324 -348l-51 32q73 117 188 324q20 6 87.5 13.5t92.5 4.5z" />
    <glyph glyph-name="mu" unicode="&#xb5;" horiz-adv-x="1054" 
d="M965 238l28 -50q-79 -94 -167.5 -153.5t-139.5 -59.5q-86 0 -37 215q20 83 37 166h-4q-149 -214 -274 -317q-79 -64 -144 -64q-64 0 -86 93h-4q-45 -163 -37 -301q4 -73 23.5 -131.5t44.5 -81.5l2 -15q-14 -23 -50 -44t-75 -21q-36 0 -59.5 38.5t-20.5 110.5
q5 113 76 406q45 197 188 848l166 45l12 -11q-123 -526 -143 -620q-18 -86 -5.5 -129t46.5 -43q46 0 124.5 75t144.5 166t106 164q50 222 76 344l157 54h23q-87 -340 -158 -705q-15 -84 6 -84q14 0 59 32.5t85 72.5z" />
    <glyph glyph-name="paragraph" unicode="&#xb6;" horiz-adv-x="1001" 
d="M1092 1102l-72 -53l-168 -21l-186 -971q-26 -128 -73.5 -220t-131.5 -165q-50 -45 -110 -71.5t-89 -26.5q-40 0 -75 14.5t-54 34.5q-28 32 -14 64q12 35 47 57q22 18 43 0q61 -47 133 -47q27 0 47.5 6.5t44.5 27.5t43.5 58t40 101t37.5 153l53 268l-135 -55
q-10 -6 -37 -6q-108 0 -192 106.5t-84 255.5q0 148 78 268t202 184t265 64h380z" />
    <glyph glyph-name="periodcentered" unicode="&#xb7;" horiz-adv-x="491" 
d="M252 344q-48 0 -78.5 32t-30.5 83q0 60 36.5 99.5t92.5 39.5q47 0 78 -34t31 -85q0 -62 -38.5 -98.5t-90.5 -36.5z" />
    <glyph glyph-name="cedilla" unicode="&#xb8;" 
d="M422 2l-43 -53q-21 -27 -21 -43t23 -43q62 -76 59 -135q-3 -60 -74 -116t-180 -89l-24 57q69 31 104.5 60t36.5 61q2 30 -37 78q-32 36 -34 60.5t26 62.5l82 100h82z" />
    <glyph glyph-name="onesuperior" unicode="&#xb9;" horiz-adv-x="673" 
d="M594 858l-12 -47h-398l11 47q44 4 64.5 8t38.5 16.5t26 33t16 59.5l70 362q11 63 2 76.5t-60 18.5l-53 6l10 45q137 19 283 61l-111 -569q-13 -72 6.5 -90t106.5 -27z" />
    <glyph glyph-name="ordmasculine" unicode="&#xba;" horiz-adv-x="653" 
d="M487 1133q92 0 145.5 -56t53.5 -155q0 -85 -34.5 -162.5t-100.5 -128.5q-46 -36 -100.5 -56t-98.5 -20q-97 0 -149.5 60.5t-52.5 150.5q0 108 52.5 194t131.5 130q73 43 153 43zM453 1071q-23 0 -43 -10q-44 -19 -81.5 -93t-37.5 -196q0 -72 26 -111.5t72 -39.5
q22 0 43 8q42 17 80 105t37 202q0 64 -25.5 99.5t-70.5 35.5z" />
    <glyph glyph-name="guillemotright" unicode="&#xbb;" horiz-adv-x="921" 
d="M190 797l54 30q191 -277 272 -372q-125 -119 -350 -375l-47 35l219 340zM530 797l52 30q178 -258 272 -372q-125 -119 -350 -375l-47 35l219 340z" />
    <glyph glyph-name="onequarter" unicode="&#xbc;" horiz-adv-x="1564" 
d="M1366 1288l-1042 -1347l-56 51l1039 1345zM567 616l-12 -49h-399l10 49q44 4 64.5 8t38.5 16.5t25.5 33t14.5 59.5l72 361q12 65 3.5 78t-60.5 18l-54 4l11 47q122 14 284 59l-110 -567q-5 -26 -6.5 -43t2.5 -29.5t10.5 -19.5t23 -12.5t33.5 -7.5t49 -5zM1370 272
l-14 -73h-117l-10 -49q-12 -62 5 -78.5t89 -24.5l-10 -47h-369l10 47q83 8 107 23t35 77l8 52h-330l10 49q254 280 465 485h92l-88 -461h117zM1180 586q-142 -154 -281 -314h219z" />
    <glyph glyph-name="onehalf" unicode="&#xbd;" horiz-adv-x="1531" 
d="M1339 1288l-1042 -1347l-55 51l1038 1345zM553 616l-12 -49h-400l13 49q44 4 64 8t38 16.5t26 33t15 59.5l72 361q11 65 1.5 78t-61.5 18l-53 4l12 47q126 14 283 59l-111 -567q-13 -73 6.5 -91t106.5 -26zM1358 195l43 -21q-7 -13 -80 -174h-500l6 39q168 128 238 190
q89 78 139.5 144t50.5 135q0 55 -30.5 87t-89.5 32q-34 0 -68 -19t-54.5 -39.5t-49.5 -54.5l-35 37l80 100q76 82 200 82q81 0 141 -53.5t60 -144.5q0 -34 -13.5 -68.5t-29 -58.5t-51 -57.5t-53.5 -48.5t-64 -49.5t-57 -43.5l-117 -92v-4h184q55 0 83 15t67 67z" />
    <glyph glyph-name="threequarters" unicode="&#xbe;" horiz-adv-x="1531" 
d="M1391 1288l-1043 -1347l-55 51l1038 1345zM297 1114l-37 35l66 78q69 73 182 73q75 0 128.5 -39t53.5 -110q0 -50 -37.5 -85t-101.5 -65v-4q59 -13 101 -54t42 -103q0 -146 -172 -232q-100 -53 -192 -53q-48 0 -89 15.5t-57 33.5q-26 26 -16 55q17 39 45 54q22 13 43 -8
q24 -21 40 -33.5t48.5 -26.5t63.5 -14q56 0 95.5 41.5t39.5 111.5t-38.5 105t-98.5 35q-39 0 -74 -13l-13 50q98 22 161 65t63 100q0 40 -25 62t-69 22q-80 0 -152 -96zM1386 272l-12 -73h-119l-10 -49q-12 -62 5.5 -78.5t88.5 -24.5l-8 -47h-368l10 47q82 8 105.5 23
t33.5 77l10 52h-329l10 49q244 270 463 485h92l-88 -461h116zM1200 586h-4q-188 -208 -278 -314h219z" />
    <glyph glyph-name="questiondown" unicode="&#xbf;" horiz-adv-x="739" 
d="M479 922q49 0 81 -34t32 -87q0 -62 -38 -102t-93 -40q-51 0 -83 34.5t-32 88.5q0 62 39 101t94 39zM342 457l39 43q72 -39 129 -104.5t57 -137.5q0 -76 -59.5 -137t-163.5 -125q-136 -79 -182 -117q-70 -59 -70 -112q0 -42 30 -68.5t79 -26.5q47 0 91.5 16.5t70.5 36
l48 36t31 16.5q25 0 50.5 -29t25.5 -63q0 -41 -59 -82q-47 -34 -102 -52t-89 -18q-112 0 -196 91.5t-84 211.5q0 73 33.5 127.5t105.5 102.5q19 12 52.5 33.5t50.5 32t43.5 28t39.5 28t32 25.5t28 26t18.5 25t13 27.5t3.5 27.5q0 69 -66 138z" />
    <glyph glyph-name="Agrave" unicode="&#xc0;" horiz-adv-x="1361" 
d="M1274 57l-14 -57h-498l16 57q70 7 99.5 19t37 38t-1.5 70q-7 48 -24 152t-23 139h-422q-77 -141 -137 -270q-15 -31 -22.5 -50.5t-8 -36.5t6 -26t25.5 -16.5t44.5 -11t67.5 -7.5l-14 -57h-445l16 57q53 8 78 14.5t54.5 29t52 57t61.5 104.5l611 1079l71 19l53 -340
q50 -310 134 -776q8 -43 13 -66.5t14.5 -46.5t19.5 -33t30.5 -19.5t43 -13.5t61.5 -8zM852 565l-80 516h-4q-37 -69 -133.5 -245t-145.5 -271h363zM975 1454l-29 -53l-395 127l-4 16q6 27 37.5 71.5t52.5 51.5q152 -93 338 -213z" />
    <glyph glyph-name="Aacute" unicode="&#xc1;" horiz-adv-x="1361" 
d="M1274 57l-14 -57h-498l16 57q70 7 99.5 19t37 38t-1.5 70q-7 48 -24 152t-23 139h-422q-77 -141 -137 -270q-15 -31 -22.5 -50.5t-8 -36.5t6 -26t25.5 -16.5t44.5 -11t67.5 -7.5l-14 -57h-445l16 57q53 8 78 14.5t54.5 29t52 57t61.5 104.5l611 1079l71 19l53 -340
q50 -310 134 -776q8 -43 13 -66.5t14.5 -46.5t19.5 -33t30.5 -19.5t43 -13.5t61.5 -8zM852 565l-80 516h-4q-37 -69 -133.5 -245t-145.5 -271h363zM1180 1544l-6 -16l-394 -129l-26 53q61 39 176 112.5t160 102.5q21 -6 52.5 -50t37.5 -73z" />
    <glyph glyph-name="Acircumflex" unicode="&#xc2;" horiz-adv-x="1361" 
d="M1274 57l-14 -57h-498l16 57q70 7 99.5 19t37 38t-1.5 70q-7 48 -24 152t-23 139h-422q-77 -141 -137 -270q-15 -31 -22.5 -50.5t-8 -36.5t6 -26t25.5 -16.5t44.5 -11t67.5 -7.5l-14 -57h-445l16 57q53 8 78 14.5t54.5 29t52 57t61.5 104.5l611 1079l71 19l53 -340
q50 -310 134 -776q8 -43 13 -66.5t14.5 -46.5t19.5 -33t30.5 -19.5t43 -13.5t61.5 -8zM852 565l-80 516h-4q-37 -69 -133.5 -245t-145.5 -271h363zM1153 1448l-39 -47q-108 44 -223 117q-165 -84 -262 -117l-29 47q149 95 283 217h55q89 -107 215 -217z" />
    <glyph glyph-name="Atilde" unicode="&#xc3;" horiz-adv-x="1361" 
d="M1274 57l-14 -57h-498l16 57q70 7 99.5 19t37 38t-1.5 70q-7 48 -24 152t-23 139h-422q-77 -141 -137 -270q-15 -31 -22.5 -50.5t-8 -36.5t6 -26t25.5 -16.5t44.5 -11t67.5 -7.5l-14 -57h-445l16 57q53 8 78 14.5t54.5 29t52 57t61.5 104.5l611 1079l71 19l53 -340
q50 -310 134 -776q8 -43 13 -66.5t14.5 -46.5t19.5 -33t30.5 -19.5t43 -13.5t61.5 -8zM852 565l-80 516h-4q-37 -69 -133.5 -245t-145.5 -271h363zM1106 1626l53 -33q-60 -170 -168 -170q-41 0 -141 47q-6 2 -17.5 7t-18 7.5t-16 5t-18.5 4t-18 1.5q-52 0 -98 -90l-52 39
q34 89 78 128.5t88 39.5t125 -37q79 -35 107 -35q27 0 48.5 21t47.5 65z" />
    <glyph glyph-name="Adieresis" unicode="&#xc4;" horiz-adv-x="1361" 
d="M1274 57l-14 -57h-498l16 57q70 7 99.5 19t37 38t-1.5 70q-7 48 -24 152t-23 139h-422q-77 -141 -137 -270q-15 -31 -22.5 -50.5t-8 -36.5t6 -26t25.5 -16.5t44.5 -11t67.5 -7.5l-14 -57h-445l16 57q53 8 78 14.5t54.5 29t52 57t61.5 104.5l611 1079l71 19l53 -340
q50 -310 134 -776q8 -43 13 -66.5t14.5 -46.5t19.5 -33t30.5 -19.5t43 -13.5t61.5 -8zM852 565l-80 516h-4q-37 -69 -133.5 -245t-145.5 -271h363zM696 1628q41 0 62.5 -26.5t21.5 -65.5q0 -49 -30 -84t-78 -35q-37 0 -61.5 25.5t-24.5 64.5q0 45 30 83t80 38zM1085 1628
q41 0 63.5 -26.5t22.5 -65.5q0 -49 -31 -84t-79 -35q-37 0 -61.5 25.5t-24.5 64.5q0 45 30 83t80 38z" />
    <glyph glyph-name="Aring" unicode="&#xc5;" horiz-adv-x="1361" 
d="M1274 57l-14 -57h-498l16 57q70 7 99.5 19t37 38t-1.5 70q-7 48 -24 152t-23 139h-422q-77 -141 -137 -270q-15 -31 -22.5 -50.5t-8 -36.5t6 -26t25.5 -16.5t44.5 -11t67.5 -7.5l-14 -57h-445l16 57q53 8 78 14.5t54.5 29t52 57t61.5 104.5l611 1079l71 19l53 -340
q50 -310 134 -776q8 -43 13 -66.5t14.5 -46.5t19.5 -33t30.5 -19.5t43 -13.5t61.5 -8zM852 565l-80 516h-4q-37 -69 -133.5 -245t-145.5 -271h363zM1071 1587q-1 -80 -60.5 -129t-138.5 -49q-73 0 -119.5 46.5t-43.5 117.5q3 83 60.5 134.5t135.5 51.5q72 0 120.5 -47.5
t45.5 -124.5zM977 1589q2 44 -18.5 72.5t-59.5 28.5q-41 0 -67.5 -32.5t-28.5 -80.5q0 -43 21 -69.5t59 -26.5q39 0 66 30.5t28 77.5z" />
    <glyph glyph-name="AE" unicode="&#xc6;" horiz-adv-x="1767" 
d="M1739 1020l-62 -4q-3 130 -30 180q-18 36 -59 48.5t-148 12.5h-142q-52 0 -64.5 -11.5t-23.5 -65.5l-92 -492h187q47 0 75.5 1.5t53.5 8.5t38 15t27.5 28t23 40t23.5 59h62l-78 -398h-62q1 43 0 64t-7.5 43t-16 30t-32.5 15.5t-50.5 8.5t-75.5 1h-184l-58 -317
q-15 -83 -13 -123.5t24 -59.5q22 -18 67 -24t135 -6q112 0 167 12.5t96 52.5q60 58 137 197l59 -23q-7 -17 -34.5 -88t-52.5 -134.5t-38 -90.5h-968l12 57q47 4 71 7t50 12t37 19t24 33t19.5 50.5t15.5 73.5l70 352h-355q-207 -302 -270 -416q-38 -64 -29.5 -87.5
t74.5 -32.5l64 -11l-15 -57h-475l12 57q53 7 81 13.5t59 24t56.5 46t63.5 80.5q139 189 400 560.5t272 387.5q35 51 25.5 67t-78.5 24l-109 10l19 59h1059q-2 -15 -15 -129t-22 -180zM623 688h315l113 567q-27 0 -62 -32q-156 -220 -366 -535z" />
    <glyph glyph-name="Ccedilla" unicode="&#xc7;" horiz-adv-x="1308" 
d="M631 -102l61 73q-120 4 -221.5 45t-175.5 113.5t-116 181t-42 240.5q0 176 65 326.5t178.5 256.5t273.5 166t345 60q35 0 69 -2t65 -6.5t55 -8.5t51.5 -11t41.5 -10.5t37.5 -10.5t27.5 -8q-14 -266 -19 -326l-61 -6q-7 92 -31.5 154.5t-67 97t-94.5 49t-123 14.5
q-104 0 -197.5 -38t-165 -106.5t-124 -158.5t-80 -198t-27.5 -222q0 -236 102 -377t285 -141q75 0 139 22.5t119 69t100 101t97 133.5l55 -25q-31 -81 -77 -177t-80 -146q-2 -1 -23 -6t-30 -7.5t-33 -8t-40.5 -8.5t-43 -7.5t-49 -7t-51 -4.5t-56.5 -3l-22 -26
q-22 -27 -22 -43t24 -45q66 -77 63 -140q-3 -62 -75.5 -119t-184.5 -90l-21 56q141 62 146 123q0 7 -0.5 14t-3.5 14t-5 11.5t-7 12l-7 10.5t-8 10.5t-8 9.5q-34 39 -36 64.5t28 64.5z" />
    <glyph glyph-name="Egrave" unicode="&#xc8;" horiz-adv-x="1148" 
d="M260 1329h899q-10 -68 -39 -315l-61 -4q-3 139 -29 182q-18 38 -55 51.5t-141 13.5h-148q-54 0 -67.5 -13t-24.5 -70l-84 -439h186q40 0 65 1.5t47.5 4t36.5 11t26 17t22 28t17.5 37.5t19.5 51h61l-78 -393h-61q1 34 1 49.5t-2 37.5t-5 29t-12.5 19t-20.5 14.5t-31.5 6.5
t-43 4.5t-58.5 0.5h-186l-68 -358q-15 -85 -13.5 -128.5t21.5 -62.5q22 -19 65.5 -24.5t135.5 -5.5q110 0 166.5 14.5t97.5 54.5q60 55 139 195l60 -21q-97 -248 -127 -317h-967l14 57q68 6 99 12t56 28t34.5 53t23.5 98l160 833q9 45 13 70.5t1 48.5t-10.5 33t-29.5 19
t-47 12.5t-72 7.5zM905 1456l-28 -53l-396 127l-4 16q6 26 37.5 71t52.5 54q43 -28 160 -101t178 -114z" />
    <glyph glyph-name="Eacute" unicode="&#xc9;" horiz-adv-x="1148" 
d="M260 1329h899q-10 -68 -39 -315l-61 -4q-3 139 -29 182q-18 38 -55 51.5t-141 13.5h-148q-54 0 -67.5 -13t-24.5 -70l-84 -439h186q40 0 65 1.5t47.5 4t36.5 11t26 17t22 28t17.5 37.5t19.5 51h61l-78 -393h-61q1 34 1 49.5t-2 37.5t-5 29t-12.5 19t-20.5 14.5t-31.5 6.5
t-43 4.5t-58.5 0.5h-186l-68 -358q-15 -85 -13.5 -128.5t21.5 -62.5q22 -19 65.5 -24.5t135.5 -5.5q110 0 166.5 14.5t97.5 54.5q60 55 139 195l60 -21q-97 -248 -127 -317h-967l14 57q68 6 99 12t56 28t34.5 53t23.5 98l160 833q9 45 13 70.5t1 48.5t-10.5 33t-29.5 19
t-47 12.5t-72 7.5zM1063 1546l-6 -16l-391 -127l-27 51q61 39 176 112.5t160 102.5q21 -6 52 -50t36 -73z" />
    <glyph glyph-name="Ecircumflex" unicode="&#xca;" horiz-adv-x="1148" 
d="M260 1329h899q-10 -68 -39 -315l-61 -4q-3 139 -29 182q-18 38 -55 51.5t-141 13.5h-148q-54 0 -67.5 -13t-24.5 -70l-84 -439h186q40 0 65 1.5t47.5 4t36.5 11t26 17t22 28t17.5 37.5t19.5 51h61l-78 -393h-61q1 34 1 49.5t-2 37.5t-5 29t-12.5 19t-20.5 14.5t-31.5 6.5
t-43 4.5t-58.5 0.5h-186l-68 -358q-15 -85 -13.5 -128.5t21.5 -62.5q22 -19 65.5 -24.5t135.5 -5.5q110 0 166.5 14.5t97.5 54.5q60 55 139 195l60 -21q-97 -248 -127 -317h-967l14 57q68 6 99 12t56 28t34.5 53t23.5 98l160 833q9 45 13 70.5t1 48.5t-10.5 33t-29.5 19
t-47 12.5t-72 7.5zM1044 1448l-38 -47q-111 48 -224 117q-162 -81 -262 -117l-28 49q153 97 282 215h55q89 -107 215 -217z" />
    <glyph glyph-name="Edieresis" unicode="&#xcb;" horiz-adv-x="1148" 
d="M260 1329h899q-10 -68 -39 -315l-61 -4q-3 139 -29 182q-18 38 -55 51.5t-141 13.5h-148q-54 0 -67.5 -13t-24.5 -70l-84 -439h186q40 0 65 1.5t47.5 4t36.5 11t26 17t22 28t17.5 37.5t19.5 51h61l-78 -393h-61q1 34 1 49.5t-2 37.5t-5 29t-12.5 19t-20.5 14.5t-31.5 6.5
t-43 4.5t-58.5 0.5h-186l-68 -358q-15 -85 -13.5 -128.5t21.5 -62.5q22 -19 65.5 -24.5t135.5 -5.5q110 0 166.5 14.5t97.5 54.5q60 55 139 195l60 -21q-97 -248 -127 -317h-967l14 57q68 6 99 12t56 28t34.5 53t23.5 98l160 833q9 45 13 70.5t1 48.5t-10.5 33t-29.5 19
t-47 12.5t-72 7.5zM600 1628q41 0 63.5 -26.5t22.5 -65.5q0 -49 -31.5 -84t-79.5 -35q-37 0 -61.5 25.5t-24.5 64.5q0 44 30.5 82.5t80.5 38.5zM989 1628q41 0 63.5 -26.5t22.5 -65.5q0 -49 -31 -84t-79 -35q-37 0 -61.5 25.5t-24.5 64.5q0 45 30 83t80 38z" />
    <glyph glyph-name="Igrave" unicode="&#xcc;" horiz-adv-x="698" 
d="M791 1329l-13 -57q-44 -4 -68 -7t-46.5 -12t-32.5 -17.5t-21 -31.5t-16 -44.5t-14 -65.5l-164 -850q-8 -44 -11.5 -69t0 -47.5t11.5 -33t30 -19t47.5 -12t71.5 -6.5l-12 -57h-539l15 57q43 3 68 6.5t47 13t32.5 19t21.5 33t16.5 47t14.5 68.5l166 850q8 41 11 65t-1 45
t-12 31t-30.5 18.5t-48 11.5t-72.5 7l14 57h535zM684 1454l-31 -53l-395 127l-4 16q8 28 39 72t51 51q93 -57 340 -213z" />
    <glyph glyph-name="Iacute" unicode="&#xcd;" horiz-adv-x="698" 
d="M791 1329l-13 -57q-44 -4 -68 -7t-46.5 -12t-32.5 -17.5t-21 -31.5t-16 -44.5t-14 -65.5l-164 -850q-8 -44 -11.5 -69t0 -47.5t11.5 -33t30 -19t47.5 -12t71.5 -6.5l-12 -57h-539l15 57q43 3 68 6.5t47 13t32.5 19t21.5 33t16.5 47t14.5 68.5l166 850q8 41 11 65t-1 45
t-12 31t-30.5 18.5t-48 11.5t-72.5 7l14 57h535zM829 1544l-6 -16l-391 -129l-29 53q61 39 176 112.5t160 102.5q21 -6 52.5 -50t37.5 -73z" />
    <glyph glyph-name="Icircumflex" unicode="&#xce;" horiz-adv-x="698" 
d="M791 1329l-13 -57q-44 -4 -68 -7t-46.5 -12t-32.5 -17.5t-21 -31.5t-16 -44.5t-14 -65.5l-164 -850q-8 -44 -11.5 -69t0 -47.5t11.5 -33t30 -19t47.5 -12t71.5 -6.5l-12 -57h-539l15 57q43 3 68 6.5t47 13t32.5 19t21.5 33t16.5 47t14.5 68.5l166 850q8 41 11 65t-1 45
t-12 31t-30.5 18.5t-48 11.5t-72.5 7l14 57h535zM811 1448l-39 -47q-107 46 -223 117q-149 -76 -262 -117l-27 49q157 102 281 215h55q89 -107 215 -217z" />
    <glyph glyph-name="Idieresis" unicode="&#xcf;" horiz-adv-x="698" 
d="M791 1329l-13 -57q-44 -4 -68 -7t-46.5 -12t-32.5 -17.5t-21 -31.5t-16 -44.5t-14 -65.5l-164 -850q-8 -44 -11.5 -69t0 -47.5t11.5 -33t30 -19t47.5 -12t71.5 -6.5l-12 -57h-539l15 57q43 3 68 6.5t47 13t32.5 19t21.5 33t16.5 47t14.5 68.5l166 850q8 41 11 65t-1 45
t-12 31t-30.5 18.5t-48 11.5t-72.5 7l14 57h535zM367 1628q40 0 62 -26.5t22 -65.5q0 -48 -31.5 -83.5t-77.5 -35.5q-37 0 -61.5 25.5t-24.5 64.5q0 44 30.5 82.5t80.5 38.5zM756 1628q41 0 63.5 -26.5t22.5 -65.5q0 -49 -31.5 -84t-79.5 -35q-37 0 -61.5 25.5t-24.5 64.5
q0 44 30.5 82.5t80.5 38.5z" />
    <glyph glyph-name="Eth" unicode="&#xd0;" horiz-adv-x="1480" 
d="M281 1329h514q150 0 268.5 -31.5t207 -96.5t136 -171.5t47.5 -249.5q0 -195 -89.5 -359t-252.5 -267q-129 -84 -281 -119t-354 -35h-446l16 57q44 4 67.5 7.5t47 12.5t33.5 19t22 32.5t18 47t15 68.5l78 411h-219l18 80h217l66 342q9 47 13 74t-0.5 50t-11 33t-30.5 19
t-46 11.5t-71 7.5zM512 655l-70 -379q-16 -83 -11 -119.5t36 -54.5q45 -26 135 -26q127 1 234 42t180.5 110t125 161t75.5 194t24 210q0 102 -24.5 184.5t-76.5 147t-140 100t-207 35.5q-106 0 -138 -19q-19 -9 -29.5 -27.5t-17.5 -58.5l-80 -420h314l-19 -80h-311z" />
    <glyph glyph-name="Ntilde" unicode="&#xd1;" horiz-adv-x="1443" 
d="M1571 1329l-12 -57q-90 -4 -124 -31t-55 -98q-36 -121 -80 -348l-153 -811h-70l-602 1077h-6l-104 -533q-45 -227 -52 -344q-4 -70 30.5 -94.5t143.5 -32.5l-12 -57h-475l14 57q81 5 121 31t60 92q29 89 86 352l102 488q16 88 13 120.5t-23 69.5q-19 32 -54.5 44.5
t-117.5 17.5l14 57h309l592 -1024h6l92 490q46 242 54 350q6 71 -29.5 96t-148.5 31l16 57h465zM1135 1616l53 -33q-60 -170 -166 -170q-40 0 -132 42q-3 2 -5.5 3t-5.5 2q-60 25 -86 25q-53 0 -99 -90l-53 39q35 90 79 129t89 39q41 0 125 -37q75 -35 106 -35
q28 0 49.5 21.5t45.5 64.5z" />
    <glyph glyph-name="Ograve" unicode="&#xd2;" horiz-adv-x="1456" 
d="M883 1362q246 0 397.5 -164t151.5 -424q0 -162 -56 -309.5t-154 -257t-238.5 -174t-301.5 -64.5q-244 0 -395.5 161t-151.5 421q0 159 57 307t155 259t238.5 178t297.5 67zM868 1288q-112 0 -211 -67.5t-165.5 -176.5t-105 -245t-38.5 -273q0 -140 36 -246.5
t116.5 -171.5t197.5 -65q95 0 179.5 46t145.5 123t105.5 175t66.5 204.5t22 209.5q0 105 -19.5 190.5t-59.5 153.5t-109 105.5t-161 37.5zM1063 1473l-29 -54l-395 127l-4 17q6 27 37.5 71.5t52.5 51.5q34 -21 338 -213z" />
    <glyph glyph-name="Oacute" unicode="&#xd3;" horiz-adv-x="1456" 
d="M883 1362q246 0 397.5 -164t151.5 -424q0 -162 -56 -309.5t-154 -257t-238.5 -174t-301.5 -64.5q-244 0 -395.5 161t-151.5 421q0 159 57 307t155 259t238.5 178t297.5 67zM868 1288q-112 0 -211 -67.5t-165.5 -176.5t-105 -245t-38.5 -273q0 -140 36 -246.5
t116.5 -171.5t197.5 -65q95 0 179.5 46t145.5 123t105.5 175t66.5 204.5t22 209.5q0 105 -19.5 190.5t-59.5 153.5t-109 105.5t-161 37.5zM1157 1563l-4 -17l-393 -127l-27 51q51 33 110 71t127 81.5t99 63.5q21 -6 52 -50t36 -73z" />
    <glyph glyph-name="Ocircumflex" unicode="&#xd4;" horiz-adv-x="1456" 
d="M883 1362q246 0 397.5 -164t151.5 -424q0 -162 -56 -309.5t-154 -257t-238.5 -174t-301.5 -64.5q-244 0 -395.5 161t-151.5 421q0 159 57 307t155 259t238.5 178t297.5 67zM868 1288q-112 0 -211 -67.5t-165.5 -176.5t-105 -245t-38.5 -273q0 -140 36 -246.5
t116.5 -171.5t197.5 -65q95 0 179.5 46t145.5 123t105.5 175t66.5 204.5t22 209.5q0 105 -19.5 190.5t-59.5 153.5t-109 105.5t-161 37.5zM1167 1464l-39 -47q-108 44 -223 117q-165 -84 -262 -117l-27 49q146 91 281 215h55q89 -107 215 -217z" />
    <glyph glyph-name="Otilde" unicode="&#xd5;" horiz-adv-x="1456" 
d="M883 1362q246 0 397.5 -164t151.5 -424q0 -162 -56 -309.5t-154 -257t-238.5 -174t-301.5 -64.5q-244 0 -395.5 161t-151.5 421q0 159 57 307t155 259t238.5 178t297.5 67zM868 1288q-112 0 -211 -67.5t-165.5 -176.5t-105 -245t-38.5 -273q0 -140 36 -246.5
t116.5 -171.5t197.5 -65q95 0 179.5 46t145.5 123t105.5 175t66.5 204.5t22 209.5q0 105 -19.5 190.5t-59.5 153.5t-109 105.5t-161 37.5zM1126 1645l52 -33q-61 -170 -166 -170q-41 0 -144 47q-56 27 -86 27q-51 0 -98 -93l-53 39q35 90 79 129t89 39q44 0 125 -37
q76 -32 106 -32q28 0 49.5 20.5t46.5 63.5z" />
    <glyph glyph-name="Odieresis" unicode="&#xd6;" horiz-adv-x="1456" 
d="M883 1362q246 0 397.5 -164t151.5 -424q0 -162 -56 -309.5t-154 -257t-238.5 -174t-301.5 -64.5q-244 0 -395.5 161t-151.5 421q0 159 57 307t155 259t238.5 178t297.5 67zM868 1288q-112 0 -211 -67.5t-165.5 -176.5t-105 -245t-38.5 -273q0 -140 36 -246.5
t116.5 -171.5t197.5 -65q95 0 179.5 46t145.5 123t105.5 175t66.5 204.5t22 209.5q0 105 -19.5 190.5t-59.5 153.5t-109 105.5t-161 37.5zM721 1647q39 0 61.5 -26.5t22.5 -64.5q0 -50 -31 -85t-78 -35q-37 0 -61.5 25.5t-24.5 64.5q0 44 30.5 82.5t80.5 38.5zM1110 1647
q41 0 63.5 -26.5t22.5 -64.5q0 -50 -31 -85t-80 -35q-37 0 -61.5 25.5t-24.5 64.5q0 44 30.5 82.5t80.5 38.5z" />
    <glyph glyph-name="multiply" unicode="&#xd7;" horiz-adv-x="1224" 
d="M1098 102l-80 -84l-393 406l-396 -406l-77 84l391 404l-391 397l77 84l396 -401l393 405l80 -82l-396 -403z" />
    <glyph glyph-name="Oslash" unicode="&#xd8;" horiz-adv-x="1454" 
d="M1296 1419l60 -45l-107 -145q86 -78 134.5 -195.5t48.5 -259.5q0 -219 -96.5 -403t-271 -293t-388.5 -109q-169 0 -297 84l-107 -141l-55 51l102 135q-88 78 -136.5 196t-47.5 257q0 159 57.5 307t155.5 259t239 178t298 67q176 0 303 -88zM416 227l696 944
q-36 56 -99.5 85.5t-142.5 29.5q-115 0 -215.5 -67t-167 -175t-104 -241.5t-37.5 -267.5q0 -197 70 -308zM1153 1102l-692 -942q83 -117 237 -117q95 0 180 45.5t146.5 121.5t106.5 173.5t67.5 203t22.5 208.5q0 193 -68 307z" />
    <glyph glyph-name="Ugrave" unicode="&#xd9;" horiz-adv-x="1447" 
d="M1589 1329l-14 -57q-94 -4 -128 -28t-54 -87q-34 -120 -82 -360l-33 -166q-34 -178 -89 -308t-149 -219q-73 -67 -165.5 -101t-188.5 -34q-200 0 -319 111q-157 147 -93 495l97 510q9 44 12 69t0 47.5t-10.5 32.5t-28.5 18.5t-45.5 12t-69.5 7.5l15 57h522l-12 -57
q-43 -4 -65.5 -7t-46 -11.5t-33 -18t-21 -32.5t-17 -48t-14.5 -70l-94 -499q-24 -137 -15 -233t51.5 -156t102 -87.5t137.5 -27.5q180 0 289 136.5t166 428.5l31 150q46 247 53 362q3 62 -34 84.5t-148 28.5l14 57h479zM1077 1454l-28 -53l-396 127l-4 16q6 26 37.5 71
t50.5 52q93 -57 340 -213z" />
    <glyph glyph-name="Uacute" unicode="&#xda;" horiz-adv-x="1447" 
d="M1589 1329l-14 -57q-94 -4 -128 -28t-54 -87q-34 -120 -82 -360l-33 -166q-34 -178 -89 -308t-149 -219q-73 -67 -165.5 -101t-188.5 -34q-200 0 -319 111q-157 147 -93 495l97 510q9 44 12 69t0 47.5t-10.5 32.5t-28.5 18.5t-45.5 12t-69.5 7.5l15 57h522l-12 -57
q-43 -4 -65.5 -7t-46 -11.5t-33 -18t-21 -32.5t-17 -48t-14.5 -70l-94 -499q-24 -137 -15 -233t51.5 -156t102 -87.5t137.5 -27.5q180 0 289 136.5t166 428.5l31 150q46 247 53 362q3 62 -34 84.5t-148 28.5l14 57h479zM1231 1544l-6 -16l-391 -129l-29 53q61 39 176 112.5
t160 102.5q21 -6 53 -50.5t37 -72.5z" />
    <glyph glyph-name="Ucircumflex" unicode="&#xdb;" horiz-adv-x="1447" 
d="M1589 1329l-14 -57q-94 -4 -128 -28t-54 -87q-34 -120 -82 -360l-33 -166q-34 -178 -89 -308t-149 -219q-73 -67 -165.5 -101t-188.5 -34q-200 0 -319 111q-157 147 -93 495l97 510q9 44 12 69t0 47.5t-10.5 32.5t-28.5 18.5t-45.5 12t-69.5 7.5l15 57h522l-12 -57
q-43 -4 -65.5 -7t-46 -11.5t-33 -18t-21 -32.5t-17 -48t-14.5 -70l-94 -499q-24 -137 -15 -233t51.5 -156t102 -87.5t137.5 -27.5q180 0 289 136.5t166 428.5l31 150q46 247 53 362q3 62 -34 84.5t-148 28.5l14 57h479zM1214 1454l-38 -49q-116 50 -224 119
q-152 -79 -262 -119l-28 49q156 99 282 217l53 -2q107 -122 217 -215z" />
    <glyph glyph-name="Udieresis" unicode="&#xdc;" horiz-adv-x="1447" 
d="M1589 1329l-14 -57q-94 -4 -128 -28t-54 -87q-34 -120 -82 -360l-33 -166q-34 -178 -89 -308t-149 -219q-73 -67 -165.5 -101t-188.5 -34q-200 0 -319 111q-157 147 -93 495l97 510q9 44 12 69t0 47.5t-10.5 32.5t-28.5 18.5t-45.5 12t-69.5 7.5l15 57h522l-12 -57
q-43 -4 -65.5 -7t-46 -11.5t-33 -18t-21 -32.5t-17 -48t-14.5 -70l-94 -499q-24 -137 -15 -233t51.5 -156t102 -87.5t137.5 -27.5q180 0 289 136.5t166 428.5l31 150q46 247 53 362q3 62 -34 84.5t-148 28.5l14 57h479zM758 1628q41 0 62.5 -26.5t21.5 -65.5
q0 -49 -30.5 -84t-78.5 -35q-37 0 -61.5 25.5t-24.5 64.5q0 44 30.5 82.5t80.5 38.5zM1147 1628q41 0 63.5 -26.5t22.5 -65.5q0 -49 -31.5 -84t-79.5 -35q-37 0 -61.5 25.5t-24.5 64.5q0 44 30.5 82.5t80.5 38.5z" />
    <glyph glyph-name="Yacute" unicode="&#xdd;" horiz-adv-x="1259" 
d="M1413 1329l-16 -57q-98 -11 -139.5 -36t-118.5 -122q-95 -119 -330 -455q-36 -51 -51 -118l-58 -283q-9 -47 -13 -74.5t0.5 -51t12.5 -34.5t33.5 -20t52 -12.5t78.5 -8.5l-14 -57h-565l14 57q47 3 72.5 6t50.5 12.5t36 20t23 35.5t18.5 51.5t16.5 75.5l53 270
q14 59 -10 123q-86 239 -174 471q-19 51 -30.5 74.5t-34 41.5t-47.5 23t-78 11l16 57h485l-14 -57l-70 -10q-49 -7 -58.5 -24.5t5.5 -63.5q116 -326 180 -486q231 325 320 475q31 54 21.5 73t-68.5 28l-60 8l17 57h444zM1116 1544l-6 -16l-391 -129l-29 53q231 146 336 215
q22 -6 53.5 -50t36.5 -73z" />
    <glyph glyph-name="Thorn" unicode="&#xde;" horiz-adv-x="1124" 
d="M563 0h-543l13 55q44 5 67 8t46.5 11.5t33 17t20.5 29.5t16 43.5t13 64.5l166 865q8 42 11.5 64.5t1 45t-9.5 31.5t-27 18t-44 13t-67 8l14 55h504l-14 -55q-34 -3 -52 -5t-39 -9t-30.5 -11.5t-22 -20.5t-17 -28t-13 -42.5t-12.5 -55t-13 -74.5h144q190 0 298.5 -79.5
t108.5 -239.5q0 -95 -41 -172.5t-110.5 -126.5t-155.5 -75.5t-180 -27.5q-32 -2 -74 8l-123 33l-22 -119q-7 -40 -10 -62.5t1.5 -43t13.5 -30t33 -18t52 -12.5t78 -8zM535 879l-89 -461q85 -29 156 -29q41 0 82.5 10.5t83.5 36t73.5 62t51.5 93.5t20 126q0 111 -63 177
t-201 67q-54 0 -84 -15q-21 -8 -30 -67z" />
    <glyph glyph-name="germandbls" unicode="&#xdf;" horiz-adv-x="1060" 
d="M164 889h119q30 148 84.5 252.5t152.5 187.5q65 56 145.5 90.5t159.5 34.5q122 0 191 -69t69 -179q0 -73 -32 -123q-238 -172 -238 -309q0 -58 70 -176q50 -79 72 -136t22 -116q0 -95 -66.5 -183t-160 -138t-179.5 -50q-64 0 -120 36.5t-56 80.5q0 18 13 39.5t34 36.5
q28 17 50 -2q93 -86 178 -86q69 0 112 48t43 114q0 79 -69 200q-71 114 -89 158q-20 50 -20 92q0 78 65.5 162t196.5 197q21 54 21 108q0 98 -47 156.5t-125 58.5q-55 0 -100 -27.5t-76 -76.5t-55 -109t-40.5 -131.5t-28.5 -138t-22 -133.5q-3 -19 -4 -29q-50 -304 -76 -453
q-44 -257 -110 -416t-156 -249q-63 -66 -126.5 -99.5t-104.5 -33.5q-43 0 -81 25t-38 59q0 21 16.5 47.5t38.5 44.5q26 20 45 4q56 -45 119 -45q54 0 84 43q59 76 125 496q24 157 54.5 363.5t43.5 287.5h-157l-9 26z" />
    <glyph glyph-name="agrave" unicode="&#xe0;" horiz-adv-x="1015" 
d="M942 244l27 -49q-81 -99 -173.5 -159.5t-138.5 -60.5q-23 0 -35.5 13.5t-17.5 55t12 118.5l37 180h-4q-106 -151 -252 -272q-118 -95 -196 -95q-48 0 -85.5 60.5t-37.5 173.5q0 154 66 305.5t175 245.5q82 69 189 115.5t205 46.5q43 0 127 -15q69 -13 86 -12l6 -8
q-69 -271 -141 -662q-15 -88 4 -88q14 0 60 33t87 74zM319 117q56 0 185.5 140.5t177.5 242.5q31 106 68 301q-51 28 -132 28q-84 0 -137 -38q-97 -74 -156 -230t-59 -313q0 -131 53 -131zM750 1024l-62 -18q-17 31 -87 157t-101 178l8 21q16 7 76 18.5t84 8.5
q11 -52 40 -179.5t42 -185.5z" />
    <glyph glyph-name="aacute" unicode="&#xe1;" horiz-adv-x="1015" 
d="M942 244l27 -49q-81 -99 -173.5 -159.5t-138.5 -60.5q-23 0 -35.5 13.5t-17.5 55t12 118.5l37 180h-4q-106 -151 -252 -272q-118 -95 -196 -95q-48 0 -85.5 60.5t-37.5 173.5q0 154 66 305.5t175 245.5q82 69 189 115.5t205 46.5q43 0 127 -15q69 -13 86 -12l6 -8
q-69 -271 -141 -662q-15 -88 4 -88q14 0 60 33t87 74zM319 117q56 0 185.5 140.5t177.5 242.5q31 106 68 301q-51 28 -132 28q-84 0 -137 -38q-97 -74 -156 -230t-59 -313q0 -131 53 -131zM938 1354l-324 -348l-51 32q82 132 189 324q20 6 87.5 13.5t92.5 4.5z" />
    <glyph glyph-name="acircumflex" unicode="&#xe2;" horiz-adv-x="1015" 
d="M942 244l27 -49q-81 -99 -173.5 -159.5t-138.5 -60.5q-23 0 -35.5 13.5t-17.5 55t12 118.5l37 180h-4q-106 -151 -252 -272q-118 -95 -196 -95q-48 0 -85.5 60.5t-37.5 173.5q0 154 66 305.5t175 245.5q82 69 189 115.5t205 46.5q43 0 127 -15q69 -13 86 -12l6 -8
q-69 -271 -141 -662q-15 -88 4 -88q14 0 60 33t87 74zM319 117q56 0 185.5 140.5t177.5 242.5q31 106 68 301q-51 28 -132 28q-84 0 -137 -38q-97 -74 -156 -230t-59 -313q0 -131 53 -131zM870 1038l-51 -37q-50 54 -147 193q-128 -124 -223 -193l-41 39q184 212 266 332h51
q45 -142 145 -334z" />
    <glyph glyph-name="atilde" unicode="&#xe3;" horiz-adv-x="1015" 
d="M942 244l27 -49q-81 -99 -173.5 -159.5t-138.5 -60.5q-23 0 -35.5 13.5t-17.5 55t12 118.5l37 180h-4q-106 -151 -252 -272q-118 -95 -196 -95q-48 0 -85.5 60.5t-37.5 173.5q0 154 66 305.5t175 245.5q82 69 189 115.5t205 46.5q43 0 127 -15q69 -13 86 -12l6 -8
q-69 -271 -141 -662q-15 -88 4 -88q14 0 60 33t87 74zM319 117q56 0 185.5 140.5t177.5 242.5q31 106 68 301q-51 28 -132 28q-84 0 -137 -38q-97 -74 -156 -230t-59 -313q0 -131 53 -131zM881 1274l51 -27q-67 -180 -168 -180q-13 0 -26 2.5t-28 8t-25 9.5t-29.5 13.5
t-28.5 13.5q-52 25 -90 25q-51 0 -97 -88l-51 32q34 90 79.5 133.5t88.5 43.5q40 0 121 -37q75 -35 108 -35q43 0 95 86z" />
    <glyph glyph-name="adieresis" unicode="&#xe4;" horiz-adv-x="1015" 
d="M942 244l27 -49q-81 -99 -173.5 -159.5t-138.5 -60.5q-23 0 -35.5 13.5t-17.5 55t12 118.5l37 180h-4q-106 -151 -252 -272q-118 -95 -196 -95q-48 0 -85.5 60.5t-37.5 173.5q0 154 66 305.5t175 245.5q82 69 189 115.5t205 46.5q43 0 127 -15q69 -13 86 -12l6 -8
q-69 -271 -141 -662q-15 -88 4 -88q14 0 60 33t87 74zM319 117q56 0 185.5 140.5t177.5 242.5q31 106 68 301q-51 28 -132 28q-84 0 -137 -38q-97 -74 -156 -230t-59 -313q0 -131 53 -131zM504 1296q41 0 63.5 -26t22.5 -64q0 -51 -31 -86t-80 -35q-37 0 -61.5 25.5
t-24.5 65.5q0 44 30.5 82t80.5 38zM870 1296q41 0 63.5 -26t22.5 -64q0 -51 -31 -86t-79 -35q-37 0 -61.5 25.5t-24.5 65.5q0 44 30 82t80 38z" />
    <glyph glyph-name="aring" unicode="&#xe5;" horiz-adv-x="1015" 
d="M942 244l27 -49q-81 -99 -173.5 -159.5t-138.5 -60.5q-23 0 -35.5 13.5t-17.5 55t12 118.5l37 180h-4q-106 -151 -252 -272q-118 -95 -196 -95q-48 0 -85.5 60.5t-37.5 173.5q0 154 66 305.5t175 245.5q82 69 189 115.5t205 46.5q43 0 127 -15q69 -13 86 -12l6 -8
q-69 -271 -141 -662q-15 -88 4 -88q14 0 60 33t87 74zM319 117q56 0 185.5 140.5t177.5 242.5q31 106 68 301q-51 28 -132 28q-84 0 -137 -38q-97 -74 -156 -230t-59 -313q0 -131 53 -131zM684 1364q73 0 123 -48t47 -128q-1 -81 -62 -130.5t-141 -49.5q-75 0 -123 47.5
t-45 120.5q3 84 62.5 136t138.5 52zM678 1294q-40 0 -68.5 -32.5t-29.5 -81.5q-2 -45 19.5 -74t59.5 -29q40 0 69 33t30 82q2 44 -19.5 73t-60.5 29z" />
    <glyph glyph-name="ae" unicode="&#xe6;" horiz-adv-x="1368" 
d="M1268 266l35 -49q-229 -240 -455 -240q-38 0 -72.5 13t-68 43t-54 89t-20.5 140q0 29 2 47l-4 2q-85 -120 -232 -237q-51 -41 -107 -69t-97 -28q-46 0 -83.5 55t-37.5 173q0 156 63.5 308.5t167.5 244.5q78 69 190 116.5t205 47.5q42 0 95 -15q44 -3 82 0l8 -10l-29 -115
l4 -2q65 64 153.5 103t157.5 39q84 0 133.5 -47t49.5 -117t-51 -132.5t-136.5 -108t-174.5 -77.5t-187 -55q-2 -23 -2 -68q0 -89 35.5 -150t113.5 -61q153 0 316 160zM610 831q-77 0 -129 -30q-82 -57 -143 -197q-76 -180 -76 -356q0 -58 14 -91.5t37 -33.5q31 0 80.5 32.5
t98.5 88.5q121 132 165 231q21 54 47 166.5t31 159.5q-48 30 -125 30zM1090 831q-56 0 -101 -30q-53 -35 -102.5 -120t-73.5 -226q103 28 176 59.5t115.5 66t61.5 70t20 76.5q0 51 -26.5 77.5t-69.5 26.5z" />
    <glyph glyph-name="ccedilla" unicode="&#xe7;" horiz-adv-x="784" 
d="M694 252l29 -49q-68 -75 -147 -128.5t-150 -76.5l-41 -51q-21 -29 -19.5 -44.5t25.5 -45.5q67 -75 64 -140q-3 -63 -75.5 -119.5t-184.5 -89.5l-23 54q144 62 147 125q2 36 -38 80q-33 40 -36 64.5t27 64.5l66 79v2q-118 -12 -185 66.5t-67 224.5q0 136 58 276t159 228
q70 62 165.5 106t176.5 44q63 0 110.5 -32t47.5 -71q0 -50 -62 -94q-40 -29 -63 8q-62 88 -150 88q-95 0 -163 -121q-39 -73 -66 -175t-27 -203q0 -104 37 -161t105 -57q115 0 280 148z" />
    <glyph glyph-name="egrave" unicode="&#xe8;" horiz-adv-x="825" 
d="M723 260l35 -47q-220 -238 -441 -238q-42 0 -79 13.5t-73 44.5t-57.5 93.5t-21.5 149.5q0 148 65 293.5t181 233.5q67 53 146.5 86t146.5 33q83 0 133.5 -48.5t50.5 -117.5q0 -226 -537 -365q-4 -25 -4 -63q0 -60 13 -107.5t49.5 -82t93.5 -34.5q64 0 143 41t156 115z
M545 836q-42 0 -80 -23q-55 -34 -108.5 -120.5t-75.5 -235.5q198 55 280 121.5t82 146.5q0 52 -27.5 81.5t-70.5 29.5zM651 1024l-63 -18q-110 204 -187 335l7 21q17 7 76.5 18.5t84.5 8.5q15 -80 82 -365z" />
    <glyph glyph-name="eacute" unicode="&#xe9;" horiz-adv-x="825" 
d="M723 260l35 -47q-220 -238 -441 -238q-42 0 -79 13.5t-73 44.5t-57.5 93.5t-21.5 149.5q0 148 65 293.5t181 233.5q67 53 146.5 86t146.5 33q83 0 133.5 -48.5t50.5 -117.5q0 -226 -537 -365q-4 -25 -4 -63q0 -60 13 -107.5t49.5 -82t93.5 -34.5q64 0 143 41t156 115z
M545 836q-42 0 -80 -23q-55 -34 -108.5 -120.5t-75.5 -235.5q198 55 280 121.5t82 146.5q0 52 -27.5 81.5t-70.5 29.5zM856 1354l-324 -348l-51 32q82 132 189 324q20 6 87.5 13.5t92.5 4.5z" />
    <glyph glyph-name="ecircumflex" unicode="&#xea;" horiz-adv-x="825" 
d="M723 260l35 -47q-220 -238 -441 -238q-42 0 -79 13.5t-73 44.5t-57.5 93.5t-21.5 149.5q0 148 65 293.5t181 233.5q67 53 146.5 86t146.5 33q83 0 133.5 -48.5t50.5 -117.5q0 -226 -537 -365q-4 -25 -4 -63q0 -60 13 -107.5t49.5 -82t93.5 -34.5q64 0 143 41t156 115z
M545 836q-42 0 -80 -23q-55 -34 -108.5 -120.5t-75.5 -235.5q198 55 280 121.5t82 146.5q0 52 -27.5 81.5t-70.5 29.5zM780 1038l-49 -37q-50 54 -147 193q-125 -121 -224 -193l-43 39q173 196 269 332h49q52 -156 145 -334z" />
    <glyph glyph-name="edieresis" unicode="&#xeb;" horiz-adv-x="825" 
d="M723 260l35 -47q-220 -238 -441 -238q-42 0 -79 13.5t-73 44.5t-57.5 93.5t-21.5 149.5q0 148 65 293.5t181 233.5q67 53 146.5 86t146.5 33q83 0 133.5 -48.5t50.5 -117.5q0 -226 -537 -365q-4 -25 -4 -63q0 -60 13 -107.5t49.5 -82t93.5 -34.5q64 0 143 41t156 115z
M545 836q-42 0 -80 -23q-55 -34 -108.5 -120.5t-75.5 -235.5q198 55 280 121.5t82 146.5q0 52 -27.5 81.5t-70.5 29.5zM412 1296q41 0 63.5 -26t22.5 -64q0 -51 -31 -86t-80 -35q-37 0 -61.5 25.5t-24.5 65.5q0 44 30.5 82t80.5 38zM778 1296q41 0 63.5 -26t22.5 -64
q0 -51 -31 -86t-79 -35q-37 0 -61.5 25.5t-24.5 65.5q0 44 30 82t80 38z" />
    <glyph glyph-name="igrave" unicode="&#xec;" horiz-adv-x="569" 
d="M471 229l29 -45q-63 -75 -161 -142t-149 -67q-25 0 -38 15.5t-15.5 61t19.5 128.5l125 512q14 68 -2 68q-13 0 -54.5 -25.5t-83.5 -60.5l-24 49q87 84 181 141.5t138 57.5q69 0 25 -168l-135 -549q-16 -70 4 -70q34 0 141 94zM475 1024l-61 -18q-188 334 -189 335l8 21
q14 7 74.5 18.5t85.5 8.5q12 -61 43 -195.5t39 -169.5z" />
    <glyph glyph-name="iacute" unicode="&#xed;" horiz-adv-x="569" 
d="M471 229l29 -45q-63 -75 -161 -142t-149 -67q-25 0 -38 15.5t-15.5 61t19.5 128.5l125 512q14 68 -2 68q-13 0 -54.5 -25.5t-83.5 -60.5l-24 49q87 84 181 141.5t138 57.5q69 0 25 -168l-135 -549q-16 -70 4 -70q34 0 141 94zM696 1354l-323 -348l-51 32q73 117 188 324
q20 6 87.5 13.5t92.5 4.5z" />
    <glyph glyph-name="icircumflex" unicode="&#xee;" horiz-adv-x="569" 
d="M471 229l29 -45q-63 -75 -161 -142t-149 -67q-25 0 -38 15.5t-15.5 61t19.5 128.5l125 512q14 68 -2 68q-13 0 -54.5 -25.5t-83.5 -60.5l-24 49q87 84 181 141.5t138 57.5q69 0 25 -168l-135 -549q-16 -70 4 -70q34 0 141 94zM621 1038l-52 -37q-65 72 -145 193
q-150 -139 -223 -193l-43 39q183 211 268 332h49q50 -150 146 -334z" />
    <glyph glyph-name="idieresis" unicode="&#xef;" horiz-adv-x="569" 
d="M471 229l29 -45q-63 -75 -161 -142t-149 -67q-25 0 -38 15.5t-15.5 61t19.5 128.5l125 512q14 68 -2 68q-13 0 -54.5 -25.5t-83.5 -60.5l-24 49q87 84 181 141.5t138 57.5q69 0 25 -168l-135 -549q-16 -70 4 -70q34 0 141 94zM264 1296q41 0 63.5 -26t22.5 -64
q0 -51 -31 -86t-79 -35q-37 0 -61.5 25.5t-24.5 65.5q0 44 30 82t80 38zM631 1296q41 0 63.5 -26t22.5 -64q0 -51 -31 -86t-80 -35q-37 0 -61.5 25.5t-24.5 65.5q0 44 30.5 82t80.5 38z" />
    <glyph glyph-name="eth" unicode="&#xf0;" horiz-adv-x="962" 
d="M979 1333l-236 -127q85 -110 128.5 -244t43.5 -270q0 -175 -60.5 -331.5t-166.5 -249.5q-68 -62 -156 -99t-167 -37q-70 0 -123.5 28t-83.5 74.5t-45 101t-15 114.5q0 100 25.5 191t69 159t94 118.5t106.5 82.5q144 79 254 76q24 0 78 -15q-3 45 -33 119t-61 121
l-293 -154l-31 66l279 147q-36 48 -114.5 110t-147.5 85q0 35 26 55q75 -13 173 -66.5t167 -125.5l254 135zM440 59q30 0 56 13q36 13 76 60t77.5 121t62 187.5t23.5 241.5q0 47 -8 73t-29 44q-49 41 -120 41q-48 0 -97 -27q-25 -13 -56 -47.5t-63.5 -93t-54.5 -151.5
t-22 -202q0 -114 39.5 -187t115.5 -73z" />
    <glyph glyph-name="ntilde" unicode="&#xf1;" horiz-adv-x="1095" 
d="M993 229l31 -51q-88 -97 -171 -150t-130 -53q-87 0 -35 215q41 168 107 449q13 56 14.5 88t-5.5 43.5t-24 11.5q-62 0 -197.5 -139.5t-213.5 -271.5q-45 -183 -82 -355q-85 -12 -162 -41l-14 17q79 302 165 690q7 32 8.5 50.5t-2 25t-10.5 6.5q-14 0 -54.5 -28t-76.5 -64
l-26 53q85 90 168.5 143.5t130.5 53.5q75 0 20 -234l-39 -164h4q89 122 186 210.5t177 137.5q83 50 141 50q19 0 33 -5t26.5 -23.5t17 -49.5t-1.5 -87t-24 -132q-56 -248 -96 -416q-19 -74 4 -74q15 0 53.5 27t77.5 67zM901 1274l51 -27q-67 -180 -168 -180q-17 0 -35.5 5
t-30 9.5t-37.5 16t-36 16.5q-48 25 -88 25q-49 0 -98 -88l-49 32q34 91 79 134t89 43q39 0 120 -37q75 -35 109 -35q42 0 94 86z" />
    <glyph glyph-name="ograve" unicode="&#xf2;" horiz-adv-x="970" 
d="M369 -25q-73 0 -128.5 27t-87 73t-46.5 102t-15 120q0 190 88 338.5t221 218.5q126 68 232 68q132 0 204 -84.5t72 -237.5q0 -138 -57 -273t-162 -223q-153 -129 -321 -129zM444 59q32 0 64 13q83 34 148.5 185t64.5 343q0 118 -43.5 180t-114.5 62q-35 0 -74 -17
q-31 -14 -64.5 -52.5t-67 -100.5t-55 -159t-21.5 -210q0 -114 44 -179t119 -65zM694 1024l-61 -18q-54 100 -187 335l7 21q16 7 75.5 18.5t83.5 8.5q11 -52 40 -179.5t42 -185.5z" />
    <glyph glyph-name="oacute" unicode="&#xf3;" horiz-adv-x="970" 
d="M369 -25q-73 0 -128.5 27t-87 73t-46.5 102t-15 120q0 190 88 338.5t221 218.5q126 68 232 68q132 0 204 -84.5t72 -237.5q0 -138 -57 -273t-162 -223q-153 -129 -321 -129zM444 59q32 0 64 13q83 34 148.5 185t64.5 343q0 118 -43.5 180t-114.5 62q-35 0 -74 -17
q-31 -14 -64.5 -52.5t-67 -100.5t-55 -159t-21.5 -210q0 -114 44 -179t119 -65zM877 1354l-324 -348l-51 32q73 117 188 324q20 6 87.5 13.5t92.5 4.5z" />
    <glyph glyph-name="ocircumflex" unicode="&#xf4;" horiz-adv-x="970" 
d="M369 -25q-73 0 -128.5 27t-87 73t-46.5 102t-15 120q0 190 88 338.5t221 218.5q126 68 232 68q132 0 204 -84.5t72 -237.5q0 -138 -57 -273t-162 -223q-153 -129 -321 -129zM444 59q32 0 64 13q83 34 148.5 185t64.5 343q0 118 -43.5 180t-114.5 62q-35 0 -74 -17
q-31 -14 -64.5 -52.5t-67 -100.5t-55 -159t-21.5 -210q0 -114 44 -179t119 -65zM840 1038l-52 -37q-50 54 -147 193q-128 -124 -223 -193l-43 39q180 203 268 332h51q43 -137 146 -334z" />
    <glyph glyph-name="otilde" unicode="&#xf5;" horiz-adv-x="970" 
d="M369 -25q-73 0 -128.5 27t-87 73t-46.5 102t-15 120q0 190 88 338.5t221 218.5q126 68 232 68q132 0 204 -84.5t72 -237.5q0 -138 -57 -273t-162 -223q-153 -129 -321 -129zM444 59q32 0 64 13q83 34 148.5 185t64.5 343q0 118 -43.5 180t-114.5 62q-35 0 -74 -17
q-31 -14 -64.5 -52.5t-67 -100.5t-55 -159t-21.5 -210q0 -114 44 -179t119 -65zM848 1274l51 -27q-67 -180 -168 -180q-17 0 -35.5 5t-30 9.5t-37.5 16t-36 16.5q-48 25 -88 25q-49 0 -98 -88l-50 32q34 91 79 134t89 43q40 0 121 -37q75 -35 109 -35q42 0 94 86z" />
    <glyph glyph-name="odieresis" unicode="&#xf6;" horiz-adv-x="970" 
d="M369 -25q-73 0 -128.5 27t-87 73t-46.5 102t-15 120q0 190 88 338.5t221 218.5q126 68 232 68q132 0 204 -84.5t72 -237.5q0 -138 -57 -273t-162 -223q-153 -129 -321 -129zM444 59q32 0 64 13q83 34 148.5 185t64.5 343q0 118 -43.5 180t-114.5 62q-35 0 -74 -17
q-31 -14 -64.5 -52.5t-67 -100.5t-55 -159t-21.5 -210q0 -114 44 -179t119 -65zM467 1296q41 0 63.5 -26t22.5 -64q0 -51 -31 -86t-80 -35q-37 0 -61.5 25.5t-24.5 65.5q0 44 30.5 82t80.5 38zM834 1296q41 0 63.5 -26t22.5 -64q0 -51 -31 -86t-80 -35q-37 0 -61.5 25.5
t-24.5 65.5q0 44 30.5 82t80.5 38z" />
    <glyph glyph-name="divide" unicode="&#xf7;" horiz-adv-x="1224" 
d="M637 723q-41 0 -73 31t-32 73q0 41 32.5 73t72.5 32q44 0 75 -31.5t31 -73.5q0 -43 -31 -73.5t-75 -30.5zM1133 467h-996v106h996v-106zM635 317q39 0 71.5 -30t32.5 -72q0 -41 -32.5 -72.5t-71.5 -31.5q-44 0 -74.5 31t-30.5 73q0 43 30.5 72.5t74.5 29.5z" />
    <glyph glyph-name="oslash" unicode="&#xf8;" horiz-adv-x="974" 
d="M860 989l51 -39l-77 -104q79 -85 79 -252q0 -130 -58 -264t-159 -221q-65 -57 -156 -95.5t-175 -38.5q-87 0 -142 37l-80 -106l-49 45l76 102q-38 42 -58 108t-20 136q0 191 85 335t214 216q135 74 246 74q89 0 145 -37zM285 205l411 559q-39 76 -127 76q-37 0 -75 -15
q-24 -10 -52 -34t-59 -67.5t-56 -99t-41.5 -136.5t-17.5 -171q0 -38 17 -112zM725 692l-412 -555q43 -80 119 -80q35 0 72 15q85 34 159.5 183.5t73.5 340.5q0 58 -12 96z" />
    <glyph glyph-name="ugrave" unicode="&#xf9;" horiz-adv-x="1095" 
d="M1014 238l28 -50q-78 -93 -167.5 -153t-139.5 -60q-26 0 -40 18t-16 65.5t19 131.5q20 82 37 172h-4q-74 -102 -160.5 -187.5t-164.5 -139.5q-85 -60 -162 -60q-132 0 -70 269q15 65 51.5 217t55.5 235q16 72 -5 72q-26 0 -139 -94l-24 53q88 86 176.5 140.5t134.5 54.5
q25 0 36 -17t9 -57.5t-18 -110.5q-18 -79 -111 -479q-31 -135 22 -135q52 0 136.5 74t156 165.5t111.5 163.5q58 255 76 342l157 54h23q-108 -440 -158 -705q-9 -49 -7.5 -65.5t13.5 -16.5q13 0 60 32.5t84 70.5zM743 1024l-63 -18q-120 224 -186 335l6 21q17 7 77 18.5
t85 8.5q19 -102 81 -365z" />
    <glyph glyph-name="uacute" unicode="&#xfa;" horiz-adv-x="1095" 
d="M1014 238l28 -50q-78 -93 -167.5 -153t-139.5 -60q-26 0 -40 18t-16 65.5t19 131.5q20 82 37 172h-4q-74 -102 -160.5 -187.5t-164.5 -139.5q-85 -60 -162 -60q-132 0 -70 269q15 65 51.5 217t55.5 235q16 72 -5 72q-26 0 -139 -94l-24 53q88 86 176.5 140.5t134.5 54.5
q25 0 36 -17t9 -57.5t-18 -110.5q-18 -79 -111 -479q-31 -135 22 -135q52 0 136.5 74t156 165.5t111.5 163.5q58 255 76 342l157 54h23q-108 -440 -158 -705q-9 -49 -7.5 -65.5t13.5 -16.5q13 0 60 32.5t84 70.5zM963 1354l-324 -348l-51 32q73 117 188 324q20 6 87.5 13.5
t92.5 4.5z" />
    <glyph glyph-name="ucircumflex" unicode="&#xfb;" horiz-adv-x="1095" 
d="M1014 238l28 -50q-78 -93 -167.5 -153t-139.5 -60q-26 0 -40 18t-16 65.5t19 131.5q20 82 37 172h-4q-74 -102 -160.5 -187.5t-164.5 -139.5q-85 -60 -162 -60q-132 0 -70 269q15 65 51.5 217t55.5 235q16 72 -5 72q-26 0 -139 -94l-24 53q88 86 176.5 140.5t134.5 54.5
q25 0 36 -17t9 -57.5t-18 -110.5q-18 -79 -111 -479q-31 -135 22 -135q52 0 136.5 74t156 165.5t111.5 163.5q58 255 76 342l157 54h23q-108 -440 -158 -705q-9 -49 -7.5 -65.5t13.5 -16.5q13 0 60 32.5t84 70.5zM899 1038l-49 -37q-54 58 -148 193q-121 -117 -223 -193
l-43 39q188 217 269 332h49q52 -156 145 -334z" />
    <glyph glyph-name="udieresis" unicode="&#xfc;" horiz-adv-x="1095" 
d="M1014 238l28 -50q-78 -93 -167.5 -153t-139.5 -60q-26 0 -40 18t-16 65.5t19 131.5q20 82 37 172h-4q-74 -102 -160.5 -187.5t-164.5 -139.5q-85 -60 -162 -60q-132 0 -70 269q15 65 51.5 217t55.5 235q16 72 -5 72q-26 0 -139 -94l-24 53q88 86 176.5 140.5t134.5 54.5
q25 0 36 -17t9 -57.5t-18 -110.5q-18 -79 -111 -479q-31 -135 22 -135q52 0 136.5 74t156 165.5t111.5 163.5q58 255 76 342l157 54h23q-108 -440 -158 -705q-9 -49 -7.5 -65.5t13.5 -16.5q13 0 60 32.5t84 70.5zM528 1296q41 0 63.5 -26t22.5 -64q0 -51 -31 -86t-79 -35
q-37 0 -61.5 25.5t-24.5 65.5q0 44 30 82t80 38zM895 1296q41 0 63.5 -26t22.5 -64q0 -51 -31 -86t-80 -35q-37 0 -61.5 25.5t-24.5 65.5q0 44 30.5 82t80.5 38z" />
    <glyph glyph-name="yacute" unicode="&#xfd;" horiz-adv-x="915" 
d="M502 162h4q54 81 83.5 128.5t80.5 136.5t76.5 160t25.5 124q0 38 -24 98q-9 25 4 55q12 25 38 41.5t52 16.5q36 0 61 -32t25 -85q3 -88 -74 -219q-147 -263 -362 -566q-221 -318 -373 -485l-223 -57l-17 47q280 183 477 446q-1 116 -21.5 320.5t-43.5 351.5
q-17 121 -43 121q-13 0 -47 -32.5t-70 -84.5l-37 49q60 93 129 159.5t123 66.5q44 0 70.5 -59.5t40.5 -188.5q30 -230 45 -512zM895 1354l-324 -348l-51 32q82 132 189 324q20 6 87.5 13.5t92.5 4.5z" />
    <glyph glyph-name="thorn" unicode="&#xfe;" horiz-adv-x="1015" 
d="M377 621h4q126 154 243.5 227.5t196.5 73.5q63 0 106.5 -61.5t43.5 -174.5q0 -176 -84.5 -341t-220.5 -259q-76 -54 -162 -82.5t-119 -28.5q-76 0 -131 33q-8 -45 -26 -136.5t-27 -141.5q-19 -94 -1 -122.5t103 -37.5l49 -4l-6 -55l-500 -25l7 57q69 14 98 28.5t47 48.5
t35 112q205 991 297 1452q10 51 11.5 77t-11.5 41.5t-32.5 18.5t-64.5 4h-45l7 55q71 8 146 26t123 32.5t58 15.5q16 2 21 -11.5t-2 -45.5zM715 795q-59 0 -161 -82.5t-196 -225.5q-16 -67 -75 -352q22 -25 64 -46t89 -21q78 0 131 36q74 49 144.5 209t70.5 336
q0 73 -18.5 109.5t-48.5 36.5z" />
    <glyph glyph-name="ydieresis" unicode="&#xff;" horiz-adv-x="915" 
d="M502 162h4q54 81 83.5 128.5t80.5 136.5t76.5 160t25.5 124q0 38 -24 98q-9 25 4 55q12 25 38 41.5t52 16.5q36 0 61 -32t25 -85q3 -88 -74 -219q-147 -263 -362 -566q-221 -318 -373 -485l-223 -57l-17 47q280 183 477 446q-1 116 -21.5 320.5t-43.5 351.5
q-17 121 -43 121q-13 0 -47 -32.5t-70 -84.5l-37 49q60 93 129 159.5t123 66.5q44 0 70.5 -59.5t40.5 -188.5q30 -230 45 -512zM446 1296q41 0 63.5 -26t22.5 -64q0 -51 -31 -86t-79 -35q-37 0 -61.5 25.5t-24.5 65.5q0 44 30 82t80 38zM813 1296q41 0 63.5 -26t22.5 -64
q0 -51 -31 -86t-80 -35q-37 0 -61.5 25.5t-24.5 65.5q0 44 30.5 82t80.5 38z" />
    <glyph glyph-name="Amacron" unicode="&#x100;" horiz-adv-x="1361" 
d="M1274 57l-14 -57h-498l16 57q70 7 99.5 19t37 38t-1.5 70q-7 48 -24 152t-23 139h-422q-77 -141 -137 -270q-15 -31 -22.5 -50.5t-8 -36.5t6 -26t25.5 -16.5t44.5 -11t67.5 -7.5l-14 -57h-445l16 57q53 8 78 14.5t54.5 29t52 57t61.5 104.5l611 1079l71 19l53 -340
q50 -310 134 -776q8 -43 13 -66.5t14.5 -46.5t19.5 -33t30.5 -19.5t43 -13.5t61.5 -8zM852 565l-80 516h-4q-37 -69 -133.5 -245t-145.5 -271h363zM1137 1567l-29 -111h-469l31 111h467z" />
    <glyph glyph-name="amacron" unicode="&#x101;" horiz-adv-x="1015" 
d="M942 244l27 -49q-81 -99 -173.5 -159.5t-138.5 -60.5q-23 0 -35.5 13.5t-17.5 55t12 118.5l37 180h-4q-106 -151 -252 -272q-118 -95 -196 -95q-48 0 -85.5 60.5t-37.5 173.5q0 154 66 305.5t175 245.5q82 69 189 115.5t205 46.5q43 0 127 -15q69 -13 86 -12l6 -8
q-69 -271 -141 -662q-15 -88 4 -88q14 0 60 33t87 74zM319 117q56 0 185.5 140.5t177.5 242.5q31 106 68 301q-51 28 -132 28q-84 0 -137 -38q-97 -74 -156 -230t-59 -313q0 -131 53 -131zM911 1227l-26 -113h-463l29 113h460z" />
    <glyph glyph-name="Abreve" unicode="&#x102;" horiz-adv-x="1361" 
d="M1274 57l-14 -57h-498l16 57q70 7 99.5 19t37 38t-1.5 70q-7 48 -24 152t-23 139h-422q-77 -141 -137 -270q-15 -31 -22.5 -50.5t-8 -36.5t6 -26t25.5 -16.5t44.5 -11t67.5 -7.5l-14 -57h-445l16 57q53 8 78 14.5t54.5 29t52 57t61.5 104.5l611 1079l71 19l53 -340
q50 -310 134 -776q8 -43 13 -66.5t14.5 -46.5t19.5 -33t30.5 -19.5t43 -13.5t61.5 -8zM852 565l-80 516h-4q-37 -69 -133.5 -245t-145.5 -271h363zM1085 1659h64q-20 -117 -93 -180.5t-184 -63.5q-107 0 -162.5 63.5t-45.5 180.5h63q10 -53 49.5 -87t110.5 -34
q135 0 198 121z" />
    <glyph glyph-name="abreve" unicode="&#x103;" horiz-adv-x="1015" 
d="M942 244l27 -49q-81 -99 -173.5 -159.5t-138.5 -60.5q-23 0 -35.5 13.5t-17.5 55t12 118.5l37 180h-4q-106 -151 -252 -272q-118 -95 -196 -95q-48 0 -85.5 60.5t-37.5 173.5q0 154 66 305.5t175 245.5q82 69 189 115.5t205 46.5q43 0 127 -15q69 -13 86 -12l6 -8
q-69 -271 -141 -662q-15 -88 4 -88q14 0 60 33t87 74zM319 117q56 0 185.5 140.5t177.5 242.5q31 106 68 301q-51 28 -132 28q-84 0 -137 -38q-97 -74 -156 -230t-59 -313q0 -131 53 -131zM862 1315h58q-23 -145 -97.5 -209t-175.5 -64q-48 0 -85.5 13.5t-67 45t-37 84
t3.5 130.5h57q2 -71 40.5 -110.5t105.5 -39.5t119.5 39.5t78.5 110.5z" />
    <glyph glyph-name="Aogonek" unicode="&#x104;" horiz-adv-x="1361" 
d="M1274 57l-14 -57h-318q-87 -71 -135.5 -153t-48.5 -148q0 -33 22 -53.5t58 -20.5t104 27l14 -58l-116 -65q-44 -23 -88 -23q-63 0 -103.5 38t-40.5 104q0 54 24.5 109.5t71.5 111t89 95.5t104 93q29 25 23 66q-4 40 -12.5 97t-23 142t-18.5 113h-422q-11 -23 -61 -120
t-76 -150q-42 -88 -22.5 -113t137.5 -35l-14 -57h-447l16 57q53 8 78 14.5t54.5 29t52 57t61.5 104.5l611 1079l71 19l53 -340q50 -310 134 -776q8 -43 13 -66.5t14.5 -46.5t19.5 -33t30.5 -19.5t43 -13.5t61.5 -8zM489 565h363l-78 516h-4q-33 -62 -132 -240.5t-149 -275.5
z" />
    <glyph glyph-name="aogonek" unicode="&#x105;" horiz-adv-x="1013" 
d="M651 342h-4q-112 -159 -252 -272q-117 -95 -194 -95q-48 0 -85.5 60t-37.5 174q0 154 66 305.5t175 245.5q82 69 188.5 115.5t203.5 46.5q43 0 127 -15q54 -14 84 -14l8 -8q-71 -275 -142 -660q-15 -86 5 -86q14 0 60 32t87 73l27 -51q-79 -95 -153.5 -145.5
t-127.5 -63.5q-76 -59 -133 -144.5t-57 -142.5q0 -32 20.5 -52t54.5 -20q28 0 95 23l14 -56l-111 -61q-36 -20 -80 -20q-60 0 -100.5 35.5t-40.5 97.5q0 146 268 358q-26 33 -2 160zM618 829q-84 0 -137 -41q-98 -72 -156.5 -227t-58.5 -311q0 -62 14.5 -94.5t36.5 -32.5
q57 0 184.5 138.5t176.5 240.5q42 144 70 299q-58 28 -130 28z" />
    <glyph glyph-name="Cacute" unicode="&#x106;" horiz-adv-x="1306" 
d="M1196 362l55 -28q-28 -67 -78.5 -166t-82.5 -148q-201 -51 -355 -51q-174 0 -308.5 66.5t-214 201t-79.5 320.5q0 144 43.5 271t122 224t184.5 167t235.5 106.5t270.5 36.5q164 0 352 -66q-9 -226 -16 -319l-63 -6q-12 177 -88 246t-230 69q-169 0 -306 -101t-211.5 -266
t-74.5 -356q0 -149 46 -265.5t138.5 -185.5t219.5 -69q72 0 134 22.5t115.5 68.5t97 99t93.5 129zM1210 1575l-4 -16l-393 -129l-27 53q61 39 176 112.5t160 102.5q21 -6 52 -50t36 -73z" />
    <glyph glyph-name="cacute" unicode="&#x107;" horiz-adv-x="788" 
d="M694 252l31 -47q-93 -108 -205 -169t-207 -61q-104 0 -164.5 78.5t-60.5 222.5q0 132 57 268t156 226q67 61 162.5 106.5t169.5 45.5q66 0 113 -32t47 -73q3 -60 -70 -100q-28 -19 -47 10q-68 96 -156 96q-92 0 -160 -129q-38 -70 -62 -169.5t-24 -200.5q0 -108 38 -164
t104 -56q69 0 148 47.5t130 100.5zM862 1354l-323 -348l-52 32q82 132 189 324q20 6 87.5 13.5t92.5 4.5z" />
    <glyph glyph-name="Ccircumflex" unicode="&#x108;" horiz-adv-x="1306" 
d="M1196 362l55 -28q-28 -67 -78.5 -166t-82.5 -148q-201 -51 -355 -51q-174 0 -308.5 66.5t-214 201t-79.5 320.5q0 144 43.5 271t122 224t184.5 167t235.5 106.5t270.5 36.5q164 0 352 -66q-9 -226 -16 -319l-63 -6q-12 177 -88 246t-230 69q-169 0 -306 -101t-211.5 -266
t-74.5 -356q0 -149 46 -265.5t138.5 -185.5t219.5 -69q72 0 134 22.5t115.5 68.5t97 99t93.5 129zM1208 1475l-39 -48q-108 44 -223 117q-165 -84 -262 -117l-27 50q146 91 281 215h55q89 -107 215 -217z" />
    <glyph glyph-name="ccircumflex" unicode="&#x109;" horiz-adv-x="788" 
d="M694 252l31 -47q-93 -108 -205 -169t-207 -61q-104 0 -164.5 78.5t-60.5 222.5q0 132 57 268t156 226q67 61 162.5 106.5t169.5 45.5q66 0 113 -32t47 -73q3 -60 -70 -100q-28 -19 -47 10q-68 96 -156 96q-92 0 -160 -129q-38 -70 -62 -169.5t-24 -200.5q0 -108 38 -164
t104 -56q69 0 148 47.5t130 100.5zM807 1038l-51 -37q-54 58 -148 193q-128 -124 -223 -193l-43 39q180 203 268 332h52q45 -142 145 -334z" />
    <glyph glyph-name="Cdotaccent" unicode="&#x10a;" horiz-adv-x="1306" 
d="M1196 362l55 -28q-28 -67 -78.5 -166t-82.5 -148q-201 -51 -355 -51q-174 0 -308.5 66.5t-214 201t-79.5 320.5q0 144 43.5 271t122 224t184.5 167t235.5 106.5t270.5 36.5q164 0 352 -66q-9 -226 -16 -319l-63 -6q-12 177 -88 246t-230 69q-169 0 -306 -101t-211.5 -266
t-74.5 -356q0 -149 46 -265.5t138.5 -185.5t219.5 -69q72 0 134 22.5t115.5 68.5t97 99t93.5 129zM954 1675q43 0 66.5 -28.5t23.5 -69.5q0 -51 -32 -88t-82 -37q-40 0 -66 27t-26 69q0 46 32 86.5t84 40.5z" />
    <glyph glyph-name="cdotaccent" unicode="&#x10b;" horiz-adv-x="788" 
d="M694 252l31 -47q-93 -108 -205 -169t-207 -61q-104 0 -164.5 78.5t-60.5 222.5q0 132 57 268t156 226q67 61 162.5 106.5t169.5 45.5q66 0 113 -32t47 -73q3 -60 -70 -100q-28 -19 -47 10q-68 96 -156 96q-92 0 -160 -129q-38 -70 -62 -169.5t-24 -200.5q0 -108 38 -164
t104 -56q69 0 148 47.5t130 100.5zM610 1307q44 0 67 -28.5t23 -70.5q0 -52 -32 -88.5t-82 -36.5q-40 0 -66 27t-26 70q0 46 32 86.5t84 40.5z" />
    <glyph glyph-name="Ccaron" unicode="&#x10c;" horiz-adv-x="1306" 
d="M1196 362l55 -28q-28 -67 -78.5 -166t-82.5 -148q-201 -51 -355 -51q-174 0 -308.5 66.5t-214 201t-79.5 320.5q0 144 43.5 271t122 224t184.5 167t235.5 106.5t270.5 36.5q164 0 352 -66q-9 -226 -16 -319l-63 -6q-12 177 -88 246t-230 69q-169 0 -306 -101t-211.5 -266
t-74.5 -356q0 -149 46 -265.5t138.5 -185.5t219.5 -69q72 0 134 22.5t115.5 68.5t97 99t93.5 129zM1206 1702l31 -45q-172 -115 -283 -219h-55q-100 120 -213 219l39 45q108 -45 221 -117q159 83 260 117z" />
    <glyph glyph-name="ccaron" unicode="&#x10d;" horiz-adv-x="788" 
d="M694 252l31 -47q-93 -108 -205 -169t-207 -61q-104 0 -164.5 78.5t-60.5 222.5q0 132 57 268t156 226q67 61 162.5 106.5t169.5 45.5q66 0 113 -32t47 -73q3 -60 -70 -100q-28 -19 -47 10q-68 96 -156 96q-92 0 -160 -129q-38 -70 -62 -169.5t-24 -200.5q0 -108 38 -164
t104 -56q69 0 148 47.5t130 100.5zM811 1380l47 -39q-183 -207 -268 -331h-49q-53 147 -148 333l53 37q70 -81 144 -192q142 132 221 192z" />
    <glyph glyph-name="Dcaron" unicode="&#x10e;" horiz-adv-x="1458" 
d="M264 1329h512q154 0 274 -32.5t207.5 -99t134 -174t46.5 -251.5q0 -193 -88 -356t-250 -264q-129 -81 -281.5 -116.5t-351.5 -35.5h-451l15 57q63 6 94 13.5t54 30.5t31.5 52.5t20.5 94.5l160 829q9 46 12.5 70.5t0.5 48.5t-10 34t-28 19.5t-46 13.5t-70 9zM588 1135
l-164 -867q-14 -76 -9.5 -111.5t31.5 -52.5q46 -28 140 -28q118 1 220 37.5t178 102t130 154t81.5 194t27.5 220.5q0 225 -121.5 349.5t-341.5 126.5q-93 0 -129 -23q-15 -9 -24.5 -30.5t-18.5 -71.5zM1124 1673l29 -47q-173 -119 -283 -219l-53 2q-89 107 -215 217l41 47
q113 -50 221 -119q146 78 260 119z" />
    <glyph glyph-name="dcaron" unicode="&#x10f;" horiz-adv-x="1050" 
d="M975 236l29 -50q-79 -94 -171 -152.5t-141 -58.5q-24 0 -37 14.5t-17.5 57.5t13.5 121l35 166h-4q-100 -138 -262 -266q-124 -93 -199 -93q-59 0 -100 65t-41 183q0 148 64.5 297t174.5 244q72 63 182 110.5t181 47.5q62 0 121 -21l65 326q13 69 -0.5 85.5t-79.5 16.5
h-61l6 53q77 9 152 27t118.5 31.5t55.5 13.5q28 0 14 -59q-153 -659 -250 -1188q-14 -72 8 -72q17 0 59 29.5t85 71.5zM330 117q70 0 197 130.5t186 237.5l63 293q-24 23 -71 38t-91 15q-80 0 -133 -38q-94 -69 -153.5 -230t-59.5 -299q0 -71 18 -109t44 -38zM1255 1452
q46 0 75.5 -37.5t29.5 -97.5q0 -90 -61 -151t-152 -87l-23 56q59 28 89 57.5t30 67.5q0 28 -12 43t-39 28q-21 11 -21 43q0 31 25 54.5t59 23.5z" />
    <glyph glyph-name="Dcroat" unicode="&#x110;" horiz-adv-x="1480" 
d="M281 1329h514q150 0 268.5 -31.5t207 -96.5t136 -171.5t47.5 -249.5q0 -195 -89.5 -359t-252.5 -267q-129 -84 -281 -119t-354 -35h-446l16 57q44 4 67.5 7.5t47 12.5t33.5 19t22 32.5t18 47t15 68.5l78 411h-219l18 80h217l66 342q9 47 13 74t-0.5 50t-11 33t-30.5 19
t-46 11.5t-71 7.5zM512 655l-70 -379q-16 -83 -11 -119.5t36 -54.5q45 -26 135 -26q127 1 234 42t180.5 110t125 161t75.5 194t24 210q0 102 -24.5 184.5t-76.5 147t-140 100t-207 35.5q-106 0 -138 -19q-19 -9 -29.5 -27.5t-17.5 -58.5l-80 -420h314l-19 -80h-311z" />
    <glyph glyph-name="dcroat" unicode="&#x111;" horiz-adv-x="1050" 
d="M1182 1165l-19 -75h-155q-94 -415 -181 -883q-14 -72 9 -72q18 0 61 30t82 71l27 -48q-78 -95 -168 -154t-140 -59q-24 0 -37.5 13.5t-19 54.5t11.5 115l37 178h-4q-110 -146 -262 -266q-122 -95 -207 -95q-58 0 -98.5 65.5t-40.5 182.5q0 148 63.5 297t173.5 244
q74 62 186.5 110t184.5 48q62 0 121 -21l39 189h-273l19 75h268l12 64q12 65 -2 83t-84 19h-53l4 51q77 9 152 27t118.5 31.5t55.5 13.5q25 0 14 -59q-52 -226 -53 -230h158zM618 831q-84 0 -139 -38q-66 -46 -116 -143.5t-73.5 -198.5t-23.5 -187q0 -73 17 -110t45 -37
q74 0 202 132.5t189 242.5l61 286q-25 23 -70.5 38t-91.5 15z" />
    <glyph glyph-name="Emacron" unicode="&#x112;" horiz-adv-x="1148" 
d="M260 1329h899q-10 -68 -39 -315l-61 -4q-3 139 -29 182q-18 38 -55 51.5t-141 13.5h-148q-54 0 -67.5 -13t-24.5 -70l-84 -439h186q40 0 65 1.5t47.5 4t36.5 11t26 17t22 28t17.5 37.5t19.5 51h61l-78 -393h-61q1 34 1 49.5t-2 37.5t-5 29t-12.5 19t-20.5 14.5t-31.5 6.5
t-43 4.5t-58.5 0.5h-186l-68 -358q-15 -85 -13.5 -128.5t21.5 -62.5q22 -19 65.5 -24.5t135.5 -5.5q110 0 166.5 14.5t97.5 54.5q60 55 139 195l60 -21q-97 -248 -127 -317h-967l14 57q68 6 99 12t56 28t34.5 53t23.5 98l160 833q9 45 13 70.5t1 48.5t-10.5 33t-29.5 19
t-47 12.5t-72 7.5zM1030 1575l-29 -111h-469l29 111h469z" />
    <glyph glyph-name="emacron" unicode="&#x113;" horiz-adv-x="825" 
d="M723 260l35 -47q-220 -238 -441 -238q-42 0 -79 13.5t-73 44.5t-57.5 93.5t-21.5 149.5q0 148 65 293.5t181 233.5q67 53 146.5 86t146.5 33q83 0 133.5 -48.5t50.5 -117.5q0 -226 -537 -365q-4 -25 -4 -63q0 -60 13 -107.5t49.5 -82t93.5 -34.5q64 0 143 41t156 115z
M545 836q-42 0 -80 -23q-55 -34 -108.5 -120.5t-75.5 -235.5q198 55 280 121.5t82 146.5q0 52 -27.5 81.5t-70.5 29.5zM819 1227l-26 -113h-463l26 113h463z" />
    <glyph glyph-name="Ebreve" unicode="&#x114;" horiz-adv-x="1148" 
d="M260 1329h899q-10 -68 -39 -315l-61 -4q-3 139 -29 182q-18 38 -55 51.5t-141 13.5h-148q-54 0 -67.5 -13t-24.5 -70l-84 -439h186q40 0 65 1.5t47.5 4t36.5 11t26 17t22 28t17.5 37.5t19.5 51h61l-78 -393h-61q1 34 1 49.5t-2 37.5t-5 29t-12.5 19t-20.5 14.5t-31.5 6.5
t-43 4.5t-58.5 0.5h-186l-68 -358q-15 -85 -13.5 -128.5t21.5 -62.5q22 -19 65.5 -24.5t135.5 -5.5q110 0 166.5 14.5t97.5 54.5q60 55 139 195l60 -21q-97 -248 -127 -317h-967l14 57q68 6 99 12t56 28t34.5 53t23.5 98l160 833q9 45 13 70.5t1 48.5t-10.5 33t-29.5 19
t-47 12.5t-72 7.5zM989 1663h66q-20 -118 -93 -181t-186 -63q-107 0 -163 63.5t-44 180.5h64q8 -52 47.5 -86.5t112.5 -34.5q136 0 196 121z" />
    <glyph glyph-name="ebreve" unicode="&#x115;" horiz-adv-x="825" 
d="M723 260l35 -47q-220 -238 -441 -238q-42 0 -79 13.5t-73 44.5t-57.5 93.5t-21.5 149.5q0 148 65 293.5t181 233.5q67 53 146.5 86t146.5 33q83 0 133.5 -48.5t50.5 -117.5q0 -226 -537 -365q-4 -25 -4 -63q0 -60 13 -107.5t49.5 -82t93.5 -34.5q64 0 143 41t156 115z
M545 836q-42 0 -80 -23q-55 -34 -108.5 -120.5t-75.5 -235.5q198 55 280 121.5t82 146.5q0 52 -27.5 81.5t-70.5 29.5zM776 1315h58q-23 -145 -97.5 -209t-175.5 -64q-48 0 -85.5 13.5t-67 45t-37 84t3.5 130.5h57q2 -71 40.5 -110.5t105.5 -39.5t119.5 39.5t78.5 110.5z
" />
    <glyph glyph-name="Edotaccent" unicode="&#x116;" horiz-adv-x="1148" 
d="M260 1329h899q-10 -68 -39 -315l-61 -4q-3 139 -29 182q-18 38 -55 51.5t-141 13.5h-148q-54 0 -67.5 -13t-24.5 -70l-84 -439h186q40 0 65 1.5t47.5 4t36.5 11t26 17t22 28t17.5 37.5t19.5 51h61l-78 -393h-61q1 34 1 49.5t-2 37.5t-5 29t-12.5 19t-20.5 14.5t-31.5 6.5
t-43 4.5t-58.5 0.5h-186l-68 -358q-15 -85 -13.5 -128.5t21.5 -62.5q22 -19 65.5 -24.5t135.5 -5.5q110 0 166.5 14.5t97.5 54.5q60 55 139 195l60 -21q-97 -248 -127 -317h-967l14 57q68 6 99 12t56 28t34.5 53t23.5 98l160 833q9 45 13 70.5t1 48.5t-10.5 33t-29.5 19
t-47 12.5t-72 7.5zM801 1655q42 0 66 -29t24 -70q0 -51 -32.5 -87.5t-82.5 -36.5q-40 0 -66 27t-26 69q0 46 32 86.5t85 40.5z" />
    <glyph glyph-name="edotaccent" unicode="&#x117;" horiz-adv-x="825" 
d="M723 260l35 -47q-220 -238 -441 -238q-42 0 -79 13.5t-73 44.5t-57.5 93.5t-21.5 149.5q0 148 65 293.5t181 233.5q67 53 146.5 86t146.5 33q83 0 133.5 -48.5t50.5 -117.5q0 -226 -537 -365q-4 -25 -4 -63q0 -60 13 -107.5t49.5 -82t93.5 -34.5q64 0 143 41t156 115z
M545 836q-42 0 -80 -23q-55 -34 -108.5 -120.5t-75.5 -235.5q198 55 280 121.5t82 146.5q0 52 -27.5 81.5t-70.5 29.5zM623 1307q44 0 67 -28.5t23 -70.5q0 -52 -32.5 -88.5t-82.5 -36.5q-39 0 -65.5 27.5t-26.5 69.5q0 46 32.5 86.5t84.5 40.5z" />
    <glyph glyph-name="Eogonek" unicode="&#x118;" horiz-adv-x="1148" 
d="M260 1329h899q-10 -68 -39 -315l-61 -4q-3 135 -31 184q-18 36 -56.5 49.5t-140.5 13.5h-145q-54 0 -67.5 -13t-24.5 -70l-84 -439h186q40 0 65 1.5t47.5 4t36.5 11t26 17t22 28t17.5 37.5t19.5 51h61l-78 -393h-61q1 34 1 49.5t-2 37.5t-5 29t-12.5 19t-20.5 14.5
t-31.5 6.5t-43 4.5t-58.5 0.5h-186l-68 -358q-15 -85 -13.5 -128.5t21.5 -62.5q22 -19 65.5 -24.5t135.5 -5.5q110 0 166.5 14.5t97.5 54.5q66 66 139 195l60 -21q-97 -248 -127 -317h-99q-99 -70 -166 -158.5t-67 -148.5q0 -33 22 -51.5t58 -18.5q38 0 94 23l16 -58
l-114 -61q-37 -21 -80 -21q-65 0 -107.5 35.5t-42.5 100.5q0 86 84.5 183.5t204.5 174.5h-770l14 57q68 6 99 12t56 28t34.5 53t23.5 98l160 833q9 45 13 70.5t1 48.5t-10.5 33t-29.5 19t-47 12.5t-72 7.5z" />
    <glyph glyph-name="eogonek" unicode="&#x119;" horiz-adv-x="825" 
d="M721 262l35 -49q-116 -123 -221 -176q-109 -89 -169.5 -171t-60.5 -165q0 -34 21.5 -53t54.5 -21q34 0 94 25l17 -58l-111 -59q-43 -24 -84 -24q-61 0 -101 34.5t-40 96.5q0 83 63.5 171t169.5 169v2q-149 -21 -226 55.5t-77 236.5q0 148 65 293.5t181 233.5
q66 52 147 85.5t148 33.5q83 0 132.5 -49t49.5 -119q0 -49 -25.5 -94t-71 -80.5t-97.5 -65.5t-117.5 -54.5t-118 -41t-109.5 -31.5q-2 -25 -2 -59q0 -96 36.5 -160t119.5 -64q64 0 142 42t155 116zM551 836q-45 0 -86 -25q-23 -14 -46.5 -37.5t-51.5 -64.5t-52 -106
t-36 -144q198 54 281 120t83 146q0 52 -26 81.5t-66 29.5z" />
    <glyph glyph-name="Ecaron" unicode="&#x11a;" horiz-adv-x="1148" 
d="M260 1329h899q-10 -68 -39 -315l-61 -4q-3 139 -29 182q-18 38 -55 51.5t-141 13.5h-148q-54 0 -67.5 -13t-24.5 -70l-84 -439h186q40 0 65 1.5t47.5 4t36.5 11t26 17t22 28t17.5 37.5t19.5 51h61l-78 -393h-61q1 34 1 49.5t-2 37.5t-5 29t-12.5 19t-20.5 14.5t-31.5 6.5
t-43 4.5t-58.5 0.5h-186l-68 -358q-15 -85 -13.5 -128.5t21.5 -62.5q22 -19 65.5 -24.5t135.5 -5.5q110 0 166.5 14.5t97.5 54.5q60 55 139 195l60 -21q-97 -248 -127 -317h-967l14 57q68 6 99 12t56 28t34.5 53t23.5 98l160 833q9 45 13 70.5t1 48.5t-10.5 33t-29.5 19
t-47 12.5t-72 7.5zM1053 1669l28 -47q-162 -107 -282 -217h-54q-89 107 -215 217l39 47q93 -38 224 -119q151 81 260 119z" />
    <glyph glyph-name="ecaron" unicode="&#x11b;" horiz-adv-x="825" 
d="M723 260l35 -47q-220 -238 -441 -238q-42 0 -79 13.5t-73 44.5t-57.5 93.5t-21.5 149.5q0 148 65 293.5t181 233.5q67 53 146.5 86t146.5 33q83 0 133.5 -48.5t50.5 -117.5q0 -226 -537 -365q-4 -25 -4 -63q0 -60 13 -107.5t49.5 -82t93.5 -34.5q64 0 143 41t156 115z
M545 836q-42 0 -80 -23q-55 -34 -108.5 -120.5t-75.5 -235.5q198 55 280 121.5t82 146.5q0 52 -27.5 81.5t-70.5 29.5zM813 1380l47 -39q-172 -194 -268 -331h-49q-51 150 -148 333l54 37q57 -65 145 -192q119 115 219 192z" />
    <glyph glyph-name="Gcircumflex" unicode="&#x11c;" horiz-adv-x="1400" 
d="M1346 975l-64 -6q-3 171 -85 245t-241 74q-176 0 -315 -100t-213 -264t-74 -357q0 -235 114 -379.5t316 -144.5q94 0 149 32t71 111l38 189q8 43 11.5 65t-2 44t-13.5 30t-36.5 17t-56.5 12.5t-87 9.5l14 55h521l-15 -55q-32 -5 -48.5 -8t-34 -11.5t-25 -17.5
t-16.5 -30.5t-14 -44.5t-13 -66l-33 -168q-19 -99 -10 -160q-12 -3 -93 -24t-116 -28t-101.5 -16.5t-123.5 -9.5q-181 0 -319 67.5t-217 201t-79 317.5q0 174 65 324.5t179 256.5t276 166t351 60q169 0 364 -64q-14 -147 -24 -323zM1225 1470l-39 -47q-108 44 -223 117
q-174 -87 -263 -117l-28 50q142 87 282 215h56q92 -110 215 -218z" />
    <glyph glyph-name="gcircumflex" unicode="&#x11d;" horiz-adv-x="870" 
d="M975 913l16 -41q-77 -83 -151 -100q-26 -4 -49 -6q14 -47 14 -109q0 -99 -44 -178.5t-108 -130.5q-105 -86 -272 -121q-36 -25 -39 -59q0 -22 35.5 -49.5t111.5 -67.5q150 -78 215.5 -142t65.5 -132q0 -81 -82 -152t-195 -109t-217 -38q-153 0 -262 67t-108 162
q1 65 85.5 134.5t256.5 156.5q-36 23 -57 51t-19 51q0 53 131 129q-184 40 -184 248q0 99 46.5 189.5t127.5 152.5q61 48 135 75.5t133 27.5q111 0 178 -58q164 3 236 49zM416 309q85 0 154 96.5t69 251.5q0 86 -33 138.5t-96 52.5q-81 0 -145 -98q-72 -111 -72 -263
q0 -84 34 -131t89 -47zM362 -434q109 0 176.5 43t67.5 104q0 75 -143 160q-128 73 -160 88q-97 -47 -154 -104t-57 -113q0 -75 81.5 -126.5t188.5 -51.5zM762 1038l-49 -37q-54 58 -148 193q-128 -124 -223 -193l-43 39q169 190 268 332h51q46 -147 144 -334z" />
    <glyph glyph-name="Gbreve" unicode="&#x11e;" horiz-adv-x="1400" 
d="M1346 975l-64 -6q-3 171 -85 245t-241 74q-176 0 -315 -100t-213 -264t-74 -357q0 -235 114 -379.5t316 -144.5q94 0 149 32t71 111l38 189q8 43 11.5 65t-2 44t-13.5 30t-36.5 17t-56.5 12.5t-87 9.5l14 55h521l-15 -55q-32 -5 -48.5 -8t-34 -11.5t-25 -17.5
t-16.5 -30.5t-14 -44.5t-13 -66l-33 -168q-19 -99 -10 -160q-12 -3 -93 -24t-116 -28t-101.5 -16.5t-123.5 -9.5q-181 0 -319 67.5t-217 201t-79 317.5q0 174 65 324.5t179 256.5t276 166t351 60q169 0 364 -64q-14 -147 -24 -323zM1174 1683h65q-20 -118 -92.5 -180.5
t-185.5 -62.5q-108 0 -163.5 63t-43.5 180h63q8 -52 47.5 -85t112.5 -33q139 0 197 118z" />
    <glyph glyph-name="gbreve" unicode="&#x11f;" horiz-adv-x="870" 
d="M975 913l16 -41q-77 -83 -151 -100q-26 -4 -49 -6q14 -47 14 -109q0 -99 -44 -178.5t-108 -130.5q-105 -86 -272 -121q-36 -25 -39 -59q0 -22 35.5 -49.5t111.5 -67.5q150 -78 215.5 -142t65.5 -132q0 -81 -82 -152t-195 -109t-217 -38q-153 0 -262 67t-108 162
q1 65 85.5 134.5t256.5 156.5q-36 23 -57 51t-19 51q0 53 131 129q-184 40 -184 248q0 99 46.5 189.5t127.5 152.5q61 48 135 75.5t133 27.5q111 0 178 -58q164 3 236 49zM416 309q85 0 154 96.5t69 251.5q0 86 -33 138.5t-96 52.5q-81 0 -145 -98q-72 -111 -72 -263
q0 -84 34 -131t89 -47zM362 -434q109 0 176.5 43t67.5 104q0 75 -143 160q-128 73 -160 88q-97 -47 -154 -104t-57 -113q0 -75 81.5 -126.5t188.5 -51.5zM758 1315h57q-23 -145 -97 -209t-175 -64q-48 0 -85.5 13.5t-67.5 45t-37.5 84t3.5 130.5h58q2 -71 40 -110.5
t105 -39.5t120 39.5t79 110.5z" />
    <glyph glyph-name="Gdotaccent" unicode="&#x120;" horiz-adv-x="1400" 
d="M1346 975l-64 -6q-3 171 -85 245t-241 74q-176 0 -315 -100t-213 -264t-74 -357q0 -235 114 -379.5t316 -144.5q94 0 149 32t71 111l38 189q8 43 11.5 65t-2 44t-13.5 30t-36.5 17t-56.5 12.5t-87 9.5l14 55h521l-15 -55q-32 -5 -48.5 -8t-34 -11.5t-25 -17.5
t-16.5 -30.5t-14 -44.5t-13 -66l-33 -168q-19 -99 -10 -160q-12 -3 -93 -24t-116 -28t-101.5 -16.5t-123.5 -9.5q-181 0 -319 67.5t-217 201t-79 317.5q0 174 65 324.5t179 256.5t276 166t351 60q169 0 364 -64q-14 -147 -24 -323zM975 1671q42 0 66 -28.5t24 -69.5
q0 -51 -33 -88t-82 -37q-40 0 -66 27t-26 69q0 46 32 86.5t85 40.5z" />
    <glyph glyph-name="gdotaccent" unicode="&#x121;" horiz-adv-x="870" 
d="M975 913l16 -41q-77 -83 -151 -100q-26 -4 -49 -6q14 -47 14 -109q0 -99 -44 -178.5t-108 -130.5q-105 -86 -272 -121q-36 -25 -39 -59q0 -22 35.5 -49.5t111.5 -67.5q150 -78 215.5 -142t65.5 -132q0 -81 -82 -152t-195 -109t-217 -38q-153 0 -262 67t-108 162
q1 65 85.5 134.5t256.5 156.5q-36 23 -57 51t-19 51q0 53 131 129q-184 40 -184 248q0 99 46.5 189.5t127.5 152.5q61 48 135 75.5t133 27.5q111 0 178 -58q164 3 236 49zM416 309q85 0 154 96.5t69 251.5q0 86 -33 138.5t-96 52.5q-81 0 -145 -98q-72 -111 -72 -263
q0 -84 34 -131t89 -47zM362 -434q109 0 176.5 43t67.5 104q0 75 -143 160q-128 73 -160 88q-97 -47 -154 -104t-57 -113q0 -75 81.5 -126.5t188.5 -51.5zM578 1307q44 0 68 -28.5t24 -70.5q0 -52 -33.5 -88.5t-83.5 -36.5q-39 0 -65.5 27.5t-26.5 69.5q0 46 32.5 86.5
t84.5 40.5z" />
    <glyph glyph-name="uni0122" unicode="&#x122;" horiz-adv-x="1400" 
d="M1346 975l-64 -6q-3 171 -85 245t-241 74q-176 0 -315 -100t-213 -264t-74 -357q0 -235 114 -379.5t316 -144.5q94 0 149 32t71 111l38 189q8 43 11.5 65t-2 44t-13.5 30t-36.5 17t-56.5 12.5t-87 9.5l14 55h521l-15 -55q-32 -5 -48.5 -8t-34 -11.5t-25 -17.5
t-16.5 -30.5t-14 -44.5t-13 -66l-33 -168q-19 -99 -10 -160q-12 -3 -93 -24t-116 -28t-101.5 -16.5t-123.5 -9.5q-181 0 -319 67.5t-217 201t-79 317.5q0 174 65 324.5t179 256.5t276 166t351 60q169 0 364 -64q-14 -147 -24 -323zM733 -88q52 0 89 -38t38 -99
q0 -52 -22.5 -94.5t-61 -71t-80 -46.5t-88.5 -28l-16 57q70 26 105.5 54t35.5 69q0 53 -76 74q-22 6 -22 41t27.5 58.5t70.5 23.5z" />
    <glyph glyph-name="uni0123" unicode="&#x123;" horiz-adv-x="870" 
d="M975 913l16 -41q-77 -83 -151 -100q-26 -4 -49 -6q14 -47 14 -109q0 -99 -44 -178.5t-108 -130.5q-105 -86 -272 -121q-36 -25 -39 -59q0 -22 35.5 -49.5t111.5 -67.5q150 -78 215.5 -142t65.5 -132q0 -81 -82 -152t-195 -109t-217 -38q-153 0 -262 67t-108 162
q1 65 85.5 134.5t256.5 156.5q-36 23 -57 51t-19 51q0 53 131 129q-184 40 -184 248q0 99 46.5 189.5t127.5 152.5q61 48 135 75.5t133 27.5q111 0 178 -58q164 3 236 49zM416 309q85 0 154 96.5t69 251.5q0 86 -33 138.5t-96 52.5q-81 0 -145 -98q-72 -111 -72 -263
q0 -84 34 -131t89 -47zM362 -434q109 0 176.5 43t67.5 104q0 75 -143 160q-128 73 -160 88q-97 -47 -154 -104t-57 -113q0 -75 81.5 -126.5t188.5 -51.5zM580 1077q-53 0 -89 37t-36 100q0 94 72 155.5t175 86.5l19 -57q-69 -28 -104 -57.5t-35 -67.5q0 -29 18 -46t55 -28
q23 -3 23 -37q0 -37 -28.5 -61.5t-69.5 -24.5z" />
    <glyph glyph-name="Hcircumflex" unicode="&#x124;" horiz-adv-x="1527" 
d="M1622 1329l-14 -57q-43 -4 -67.5 -7.5t-47 -13t-33 -19.5t-21.5 -34.5t-17 -49t-15 -71.5l-158 -825q-9 -46 -12 -71.5t0 -49t10.5 -34t29 -20t46.5 -13t70 -7.5l-13 -57h-536l12 57q45 4 70.5 7.5t49 13.5t34.5 20t22 34.5t16.5 49t14.5 70.5l78 407h-647l-76 -407
q-9 -46 -13 -72t-0.5 -49.5t11 -34t29.5 -19.5t47 -12.5t71 -7.5l-14 -57h-526l14 57q42 4 66 7.5t45.5 13.5t31 19.5t20.5 35t16 48.5t15 71l160 825q9 46 13 72t0.5 49.5t-11 34t-30 19.5t-47.5 12.5t-72 7.5l14 57h524l-14 -57q-40 -4 -63 -7.5t-44.5 -12.5t-32 -20
t-21.5 -34t-17.5 -49.5t-14.5 -71.5l-63 -329h647l62 329q9 46 13 71.5t1 49t-10.5 34t-28 20t-45 13t-68.5 7.5l13 57h526zM1227 1448l-39 -47q-107 46 -223 117q-159 -80 -263 -117l-28 49q153 97 282 215h56q89 -107 215 -217z" />
    <glyph glyph-name="hcircumflex" unicode="&#x125;" horiz-adv-x="1054" 
d="M963 225l28 -49q-84 -92 -170.5 -146.5t-136.5 -54.5q-85 0 -39 205l109 467q31 139 -19 139q-65 0 -200 -128.5t-211 -260.5q-37 -153 -78 -383q-79 -12 -162 -39l-14 17q164 749 254 1222q14 80 2.5 96.5t-74.5 18.5h-55l8 53q74 7 146 25t114.5 32.5t52.5 14.5
q15 0 17 -15t-7 -55l-180 -839h4q91 120 188.5 204t178.5 128q79 45 143 45q122 0 60 -269l-103 -442q-9 -44 -7.5 -60t13.5 -16q15 0 58 27t80 63zM721 1526l-39 -47q-121 54 -223 116q-143 -73 -262 -116l-27 49q157 102 281 215h55q89 -107 215 -217z" />
    <glyph glyph-name="Hbar" unicode="&#x126;" horiz-adv-x="1527" 
d="M1595 1042l-20 -77h-189l-137 -717q-9 -45 -13 -70t-1 -48t11 -33.5t29 -19.5t46.5 -12.5t71.5 -7.5l-13 -57h-536l12 57q44 4 69.5 7.5t49 13t34.5 19.5t22.5 33t17 48t14.5 70l76 405h-645l-78 -405q-8 -44 -11.5 -70t0 -48.5t11.5 -33.5t29.5 -20t47 -12.5t70.5 -6.5
l-14 -57h-526l14 57q42 4 65.5 7.5t45 13t31 19t20.5 34t16 47.5t14 70l140 717h-197l21 77h192l10 54q8 41 11 64.5t-1 44.5t-12 30.5t-30 18t-47.5 11.5t-71.5 7l14 57h524l-14 -57q-59 -6 -87.5 -12t-50.5 -26.5t-31 -49t-21 -88.5l-11 -54h647l11 54q8 41 11 64.5
t-0.5 44.5t-11 30.5t-28.5 18t-45 11.5t-68 7l13 57h526l-14 -57q-43 -4 -67 -7t-46.5 -12t-33 -18t-21 -30.5t-16 -44t-13.5 -64.5l-10 -54h194zM1200 965h-645l-43 -224h645z" />
    <glyph glyph-name="hbar" unicode="&#x127;" horiz-adv-x="1054" 
d="M956 225l27 -49q-81 -90 -167.5 -145.5t-139.5 -55.5q-83 0 -37 203q71 298 109 471q17 73 13.5 104t-28.5 31q-62 0 -198.5 -133t-212.5 -264q-44 -166 -78 -373q-76 -12 -164 -39l-14 17q97 427 233 1085h-166l25 74h159q15 71 21.5 106.5t4.5 56.5t-9.5 25.5
t-26.5 6.5l-59 8l12 51q54 7 114 20t97 22t47 9q11 0 15.5 -8t3 -22t-6.5 -37q-13 -56 -30 -134.5t-23 -103.5h301l-24 -74h-293q-20 -89 -58 -266.5t-59 -273.5h4q176 228 377 340q80 45 137 45q116 0 62 -234q-31 -139 -109 -473q-5 -25 -7.5 -40.5t-2 -25t3.5 -13t8 -3.5
q15 0 57 27.5t82 64.5z" />
    <glyph glyph-name="Itilde" unicode="&#x128;" horiz-adv-x="698" 
d="M791 1329l-13 -57q-44 -4 -68 -7t-46.5 -12t-32.5 -17.5t-21 -31.5t-16 -44.5t-14 -65.5l-164 -850q-8 -44 -11.5 -69t0 -47.5t11.5 -33t30 -19t47.5 -12t71.5 -6.5l-12 -57h-539l15 57q43 3 68 6.5t47 13t32.5 19t21.5 33t16.5 47t14.5 68.5l166 850q8 41 11 65t-1 45
t-12 31t-30.5 18.5t-48 11.5t-72.5 7l14 57h535zM764 1626l53 -33q-33 -91 -77 -130.5t-91 -39.5q-41 0 -141 47q-60 27 -88 27q-51 0 -98 -92l-54 39q35 90 79 129t89 39q44 0 125 -37q7 -3 21 -8.5t20 -8t17 -6.5t18 -5.5t15 -3t16 -1.5q28 0 49.5 20.5t46.5 63.5z" />
    <glyph glyph-name="itilde" unicode="&#x129;" horiz-adv-x="569" 
d="M471 229l29 -45q-63 -75 -161 -142t-149 -67q-25 0 -38 15.5t-15.5 61t19.5 128.5l125 512q14 68 -2 68q-13 0 -54.5 -25.5t-83.5 -60.5l-24 49q87 84 181 141.5t138 57.5q69 0 25 -168l-135 -549q-16 -70 4 -70q34 0 141 94zM645 1274l51 -27q-67 -180 -168 -180
q-17 0 -35.5 5t-30 9.5t-37.5 16t-36 16.5q-48 25 -88 25q-49 0 -98 -88l-49 32q34 91 79 134t89 43q39 0 120 -37q75 -35 109 -35q42 0 94 86z" />
    <glyph glyph-name="Imacron" unicode="&#x12a;" horiz-adv-x="698" 
d="M791 1329l-13 -57q-44 -4 -68 -7t-46.5 -12t-32.5 -17.5t-21 -31.5t-16 -44.5t-14 -65.5l-164 -850q-8 -44 -11.5 -69t0 -47.5t11.5 -33t30 -19t47.5 -12t71.5 -6.5l-12 -57h-539l15 57q43 3 68 6.5t47 13t32.5 19t21.5 33t16.5 47t14.5 68.5l166 850q8 41 11 65t-1 45
t-12 31t-30.5 18.5t-48 11.5t-72.5 7l14 57h535zM809 1571l-29 -111h-469l31 111h467z" />
    <glyph glyph-name="imacron" unicode="&#x12b;" horiz-adv-x="569" 
d="M471 229l29 -45q-63 -75 -161 -142t-149 -67q-25 0 -38 15.5t-15.5 61t19.5 128.5l125 512q14 68 -2 68q-13 0 -54.5 -25.5t-83.5 -60.5l-24 49q87 84 181 141.5t138 57.5q69 0 25 -168l-135 -549q-16 -70 4 -70q34 0 141 94zM662 1227l-27 -113h-465l29 113h463z" />
    <glyph glyph-name="Ibreve" unicode="&#x12c;" horiz-adv-x="698" 
d="M791 1329l-13 -57q-44 -4 -68 -7t-46.5 -12t-32.5 -17.5t-21 -31.5t-16 -44.5t-14 -65.5l-164 -850q-8 -44 -11.5 -69t0 -47.5t11.5 -33t30 -19t47.5 -12t71.5 -6.5l-12 -57h-539l15 57q43 3 68 6.5t47 13t32.5 19t21.5 33t16.5 47t14.5 68.5l166 850q8 41 11 65t-1 45
t-12 31t-30.5 18.5t-48 11.5t-72.5 7l14 57h535zM752 1661h63q-20 -118 -92.5 -181t-183.5 -63q-107 0 -163 63.5t-46 180.5h63q10 -53 49.5 -87t112.5 -34q134 0 197 121z" />
    <glyph glyph-name="ibreve" unicode="&#x12d;" horiz-adv-x="569" 
d="M471 229l29 -45q-63 -75 -161 -142t-149 -67q-25 0 -38 15.5t-15.5 61t19.5 128.5l125 512q14 68 -2 68q-13 0 -54.5 -25.5t-83.5 -60.5l-24 49q87 84 181 141.5t138 57.5q69 0 25 -168l-135 -549q-16 -70 4 -70q34 0 141 94zM616 1315h58q-23 -145 -97.5 -209
t-175.5 -64q-48 0 -85.5 13.5t-67 45t-37 84t3.5 130.5h57q2 -71 40.5 -110.5t105.5 -39.5t119.5 39.5t78.5 110.5z" />
    <glyph glyph-name="Iogonek" unicode="&#x12e;" horiz-adv-x="696" 
d="M791 1329l-13 -57q-44 -4 -67 -7t-46 -11.5t-33 -17.5t-21 -30.5t-16.5 -44t-14.5 -65.5l-166 -856q-8 -44 -11.5 -69t0 -47t11.5 -31.5t31 -18t48 -11.5t72 -6l-14 -57h-227q-47 -68 -84 -148.5t-37 -140.5q0 -41 25 -63.5t67 -22.5t94 21l14 -56l-116 -65
q-47 -21 -80 -21q-69 0 -109.5 38.5t-40.5 107.5q0 73 58.5 169t130.5 181h-234l15 57q64 5 94 11t53.5 27.5t32.5 51t22 93.5l166 856q8 41 11 64.5t-0.5 44.5t-12 30.5t-31 18t-48.5 11.5t-74 7l14 57h537z" />
    <glyph glyph-name="iogonek" unicode="&#x12f;" horiz-adv-x="565" 
d="M459 1341q43 0 66.5 -27.5t25.5 -68.5q0 -52 -33.5 -88.5t-83.5 -36.5q-39 0 -65 26t-27 68q0 46 32.5 86.5t84.5 40.5zM471 229l27 -45q-62 -74 -150 -137q-82 -87 -132 -179t-50 -159q0 -40 20.5 -60t55.5 -22q36 0 96 27l16 -57l-114 -64q-36 -20 -80 -20
q-62 0 -101 37.5t-39 99.5q0 73 60 168t139 170l-2 2q-60 -19 -74.5 36.5t11.5 153.5l125 512q14 68 -3 68q-13 0 -53.5 -25.5t-83.5 -60.5l-24 49q86 85 179.5 142t139.5 57q35 0 41.5 -45t-14.5 -123l-137 -549q-16 -70 4 -70q36 0 143 94z" />
    <glyph glyph-name="Idotaccent" unicode="&#x130;" horiz-adv-x="698" 
d="M791 1329l-13 -57q-44 -4 -68 -7t-46.5 -12t-32.5 -17.5t-21 -31.5t-16 -44.5t-14 -65.5l-164 -850q-8 -44 -11.5 -69t0 -47.5t11.5 -33t30 -19t47.5 -12t71.5 -6.5l-12 -57h-539l15 57q43 3 68 6.5t47 13t32.5 19t21.5 33t16.5 47t14.5 68.5l166 850q8 41 11 65t-1 45
t-12 31t-30.5 18.5t-48 11.5t-72.5 7l14 57h535zM567 1655q43 0 67.5 -29t24.5 -70q0 -51 -33 -87.5t-83 -36.5q-39 0 -65 27t-27 69q0 46 32 86.5t84 40.5z" />
    <glyph glyph-name="dotlessi" unicode="&#x131;" horiz-adv-x="569" 
d="M471 229l29 -45q-63 -75 -161 -142t-149 -67q-25 0 -38 15.5t-15.5 61t19.5 128.5l125 512q14 68 -2 68q-13 0 -54.5 -25.5t-83.5 -60.5l-24 49q87 84 181 141.5t138 57.5q69 0 25 -168l-135 -549q-16 -70 4 -70q34 0 141 94z" />
    <glyph glyph-name="IJ" unicode="&#x132;" horiz-adv-x="1366" 
d="M791 1329l-13 -57q-44 -4 -68 -7t-46.5 -12t-32.5 -17.5t-21 -31.5t-16 -44.5t-14 -65.5l-164 -850q-8 -44 -11.5 -69t0 -47.5t11.5 -33t30 -19t47.5 -12t71.5 -6.5l-12 -57h-539l15 57q43 3 68 6.5t47 13t32.5 19t21.5 33t16.5 47t14.5 68.5l166 850q8 41 11 65t-1 45
t-12 31t-30.5 18.5t-48 11.5t-72.5 7l14 57h535zM1481 1329l-13 -57q-43 -5 -63.5 -8.5t-43.5 -12.5t-32 -18.5t-19.5 -32t-16 -47.5t-13.5 -70l-152 -815q-37 -198 -103.5 -314.5t-184.5 -184.5q-91 -56 -176 -66l-19 66q164 46 225 221q36 95 80 317l146 776q8 45 11 71
t-1.5 48t-11.5 32t-30.5 18.5t-46.5 11.5t-71 8l15 57h520z" />
    <glyph glyph-name="ij" unicode="&#x133;" horiz-adv-x="1107" 
d="M457 1317q42 0 65 -28t23 -70q2 -50 -32.5 -87.5t-84.5 -37.5q-39 0 -63.5 26.5t-26.5 69.5q0 46 33 86.5t86 40.5zM469 229l29 -45q-63 -75 -161 -142t-149 -67q-25 0 -38 15.5t-15.5 61t19.5 128.5l125 512q14 68 -3 68q-13 0 -53.5 -25.5t-83.5 -60.5l-24 49
q87 84 181 141.5t140 57.5q67 0 25 -168l-137 -549q-16 -70 4 -70q18 0 59.5 28.5t81.5 65.5zM995 1329q41 0 64.5 -28t23.5 -68q0 -52 -32.5 -88.5t-81.5 -36.5q-40 0 -67 26t-28 70q0 46 33 85.5t88 39.5zM684 657l-27 50q89 92 187 153.5t147 61.5q35 0 39 -52t-18 -165
q-14 -73 -31.5 -159t-42.5 -207t-43 -210q-72 -366 -250 -526q-72 -65 -129.5 -95t-91.5 -30q-32 0 -61 20t-29 49q0 24 16 51.5t37 43.5q24 21 45 8q67 -39 105 -39q42 0 71.5 47t55.5 158q19 78 39 175.5t35 175t43 225.5t48 249q7 36 10.5 57t3.5 34t-3 17.5t-9 4.5
q-14 0 -60.5 -31t-86.5 -66z" />
    <glyph glyph-name="Jcircumflex" unicode="&#x134;" horiz-adv-x="669" 
d="M782 1329l-12 -57q-43 -5 -63.5 -8.5t-43.5 -12.5t-32 -18.5t-19.5 -32t-16 -47.5t-13.5 -70l-152 -815q-37 -198 -103.5 -314.5t-185.5 -184.5q-91 -56 -176 -66l-18 66q164 46 225 221q36 95 80 317l145 776q6 34 9 55.5t2.5 42t-2.5 31.5t-11.5 21.5t-19 15.5
t-31.5 10t-41 7.5t-55 5.5l14 57h520zM809 1448l-39 -47q-115 51 -223 117q-149 -76 -262 -117l-27 49q155 101 283 215h53q89 -107 215 -217z" />
    <glyph glyph-name="jcircumflex" unicode="&#x135;" horiz-adv-x="555" 
d="M631 1065l-49 -37q-70 75 -148 193q-148 -139 -221 -193l-43 39q171 193 266 330h49q51 -150 146 -332zM137 662l-26 45q90 92 188 153.5t145 61.5q35 0 38.5 -52t-19.5 -165q-15 -78 -115 -574q-72 -366 -250 -526q-71 -65 -128 -94t-91 -29t-62 18t-28 47q0 21 15.5 50
t35.5 47q22 19 45 8q57 -37 105 -37q43 0 72 46t55 161q44 189 166 823q13 63 13 84t-9 29q-15 0 -62 -30.5t-88 -65.5z" />
    <glyph glyph-name="uni0136" unicode="&#x136;" horiz-adv-x="1347" 
d="M1477 1329l-15 -55q-110 -15 -164 -39t-149 -100q-89 -71 -438 -373q74 -128 178 -290t182 -273q60 -82 99 -106.5t124 -35.5l-14 -57h-311q-221 341 -371 594q-28 49 -54.5 62t-56.5 -3l-71 -391q-9 -50 -13 -76.5t-1.5 -52t9.5 -36t28 -20.5t45 -13t69 -7l-12 -57h-518
l16 57q41 4 63 7.5t44 13t32.5 20.5t21.5 35.5t17.5 52t15.5 76.5l156 813q9 46 13 72t1.5 50t-10 34t-28 19.5t-44.5 13.5t-69 8l14 57h512l-12 -57q-43 -4 -66 -7.5t-45.5 -13.5t-32.5 -20t-21 -34.5t-17 -49t-15 -72.5l-69 -360q73 23 153 90q206 171 406 371
q44 44 40.5 62t-57.5 26l-57 8l14 57h478zM692 -41q53 0 90 -38t37 -99q0 -52 -22.5 -94.5t-61 -71t-80 -46.5t-88.5 -28l-16 58q70 26 105.5 53t35.5 67q0 54 -74 76q-24 3 -24 41q0 35 27.5 58.5t70.5 23.5z" />
    <glyph glyph-name="uni0137" unicode="&#x137;" horiz-adv-x="968" 
d="M905 209l37 -45q-67 -102 -130 -145.5t-107 -43.5q-36 0 -69 30.5t-69 107.5q-77 168 -149 374q-89 -93 -105 -122q-42 -185 -71 -349q-83 -15 -164 -41l-12 13q182 799 274 1245q12 62 -0.5 77t-73.5 17l-61 2l10 53q75 8 147.5 26t115 32t52.5 14q15 0 17 -14t-6 -45
q-175 -781 -203 -901h4q47 57 172 182q242 246 356 246q39 0 63.5 -20t24.5 -46q0 -45 -43 -88q-19 -19 -32 -12q-32 18 -82 18q-62 0 -132.5 -49t-123.5 -111q51 -170 155 -374q33 -69 53 -96t38 -27q34 0 114 92zM416 -59q53 0 90 -38.5t37 -99.5q1 -98 -73 -157t-177 -84
l-19 57q71 28 106.5 56t35.5 67q0 55 -74 76q-25 4 -25 41q0 35 28.5 58.5t70.5 23.5z" />
    <glyph glyph-name="kgreenlandic" unicode="&#x138;" horiz-adv-x="1038" 
d="M965 207l36 -43q-69 -104 -131 -146.5t-108 -42.5q-70 0 -139 129q-64 109 -166 332q-82 -82 -105 -110q-32 -127 -69 -310q-89 -12 -162 -41l-15 17q83 329 164 688q7 33 8.5 52t-2 25.5t-10.5 6.5q-14 0 -55 -27.5t-76 -62.5l-29 49q81 88 168 143.5t134 55.5
q39 0 44 -55t-20 -167l-57 -254l2 -4q108 117 227 236q240 244 336 244q44 0 69 -20t25 -48q0 -39 -43 -88q-20 -20 -35 -12q-40 18 -84 18q-29 0 -65.5 -18.5t-78.5 -54.5t-73 -66t-75 -76q81 -185 184 -356q28 -50 45.5 -67t36.5 -17q38 0 119 90z" />
    <glyph glyph-name="Lacute" unicode="&#x139;" horiz-adv-x="1095" 
d="M997 346l60 -22q-116 -292 -131 -324h-916l15 57q43 3 68 6.5t47.5 12.5t33.5 19t22 33t16.5 46.5t14.5 67.5l166 850q9 43 12.5 67t0 45.5t-10.5 31t-29 18t-46.5 11.5t-71.5 7l12 57h531l-13 -57q-45 -4 -70 -7t-48 -12.5t-33 -17.5t-20.5 -31.5t-15.5 -45t-13 -66.5
l-162 -842q-19 -114 20 -148q20 -17 61.5 -22.5t118.5 -5.5q90 0 144.5 13.5t91.5 49.5q73 73 145 209zM879 1544l-7 -16l-391 -129l-28 53q63 40 178 114t157 101q21 -6 53 -50t38 -73z" />
    <glyph glyph-name="lacute" unicode="&#x13a;" horiz-adv-x="520" 
d="M449 242l30 -49q-80 -93 -174.5 -155.5t-146.5 -62.5q-87 0 -35 252q51 236 211 994q14 69 -0.5 88t-83.5 20l-55 2l8 51q72 8 145 26t117 32t53 14q16 0 18.5 -14.5t-4.5 -48.5q-183 -873 -247 -1184q-15 -74 6 -74q18 0 68 34t90 75zM725 1647l-4 -17l-393 -129l-27 53
q61 39 176 112.5t160 102.5q21 -6 52 -50t36 -72z" />
    <glyph glyph-name="uni013B" unicode="&#x13b;" horiz-adv-x="1095" 
d="M997 346l60 -22q-116 -292 -131 -324h-916l15 57q43 3 68 6.5t47.5 12.5t33.5 19t22 33t16.5 46.5t14.5 67.5l166 850q9 43 12.5 67t0 45.5t-10.5 31t-29 18t-46.5 11.5t-71.5 7l12 57h531l-13 -57q-45 -4 -70 -7t-48 -12.5t-33 -17.5t-20.5 -31.5t-15.5 -45t-13 -66.5
l-162 -842q-19 -114 20 -148q20 -17 61.5 -22.5t118.5 -5.5q90 0 144.5 13.5t91.5 49.5q73 73 145 209zM553 -70q53 0 90 -38t37 -99q1 -98 -73 -157.5t-177 -84.5l-18 58q70 28 105.5 56t35.5 67q0 50 -74 75q-24 3 -24 39t28 60t70 24z" />
    <glyph glyph-name="uni013C" unicode="&#x13c;" horiz-adv-x="520" 
d="M449 242l30 -49q-80 -93 -174.5 -155.5t-146.5 -62.5q-87 0 -35 252q51 236 211 994q14 69 -0.5 88t-83.5 20l-55 2l8 51q72 8 145 26t117 32t53 14q16 0 18.5 -14.5t-4.5 -48.5q-183 -873 -247 -1184q-15 -74 6 -74q18 0 68 34t90 75zM188 -76q52 0 89 -38t38 -99
q0 -52 -22.5 -94.5t-61 -70.5t-80 -46t-88.5 -29l-18 58q71 26 107 54t36 69q0 52 -75 73q-25 7 -25 41q0 35 28.5 58.5t71.5 23.5z" />
    <glyph glyph-name="Lcaron" unicode="&#x13d;" horiz-adv-x="1095" 
d="M997 346l60 -22q-116 -292 -131 -324h-916l15 57q43 3 68 6.5t47.5 12.5t33.5 19t22 33t16.5 46.5t14.5 67.5l166 850q9 43 12.5 67t0 45.5t-10.5 31t-29 18t-46.5 11.5t-71.5 7l12 57h531l-13 -57q-45 -4 -70 -7t-48 -12.5t-33 -17.5t-20.5 -31.5t-15.5 -45t-13 -66.5
l-162 -842q-19 -114 20 -148q20 -17 61.5 -22.5t118.5 -5.5q90 0 144.5 13.5t91.5 49.5q73 73 145 209zM969 1346q45 0 74.5 -38t29.5 -98q0 -90 -61 -150.5t-152 -86.5l-22 55q118 57 118 125q0 28 -12 43.5t-39 28.5q-20 10 -20 43q0 31 25 54.5t59 23.5z" />
    <glyph glyph-name="lcaron" unicode="&#x13e;" horiz-adv-x="520" 
d="M449 242l30 -49q-80 -93 -174.5 -155.5t-146.5 -62.5q-87 0 -35 252q51 236 211 994q14 69 -0.5 88t-83.5 20l-55 2l8 51q72 8 145 26t117 32t53 14q16 0 18.5 -14.5t-4.5 -48.5q-183 -873 -247 -1184q-15 -74 6 -74q18 0 68 34t90 75zM719 1452q45 0 74.5 -38t29.5 -97
q0 -90 -61 -151t-152 -87l-22 56q58 28 87.5 57.5t29.5 67.5q0 28 -11.5 43t-38.5 28q-20 7 -20 43q0 31 25 54.5t59 23.5z" />
    <glyph glyph-name="Ldot" unicode="&#x13f;" horiz-adv-x="1095" 
d="M997 346l60 -22q-116 -292 -131 -324h-916l15 57q43 3 68 6.5t47.5 12.5t33.5 19t22 33t16.5 46.5t14.5 67.5l166 850q9 43 12.5 67t0 45.5t-10.5 31t-29 18t-46.5 11.5t-71.5 7l12 57h531l-13 -57q-45 -4 -70 -7t-48 -12.5t-33 -17.5t-20.5 -31.5t-15.5 -45t-13 -66.5
l-162 -842q-19 -114 20 -148q20 -17 61.5 -22.5t118.5 -5.5q90 0 144.5 13.5t91.5 49.5q73 73 145 209zM827 825q42 0 66.5 -28t24.5 -68q0 -52 -32.5 -89.5t-82.5 -37.5q-40 0 -66 27t-26 69q0 48 31.5 87.5t84.5 39.5z" />
    <glyph glyph-name="ldot" unicode="&#x140;" horiz-adv-x="581" 
d="M449 242l30 -49q-78 -92 -173.5 -155t-145.5 -63q-89 0 -37 252q189 898 209 994q15 69 1 88t-83 20l-55 2l8 51q72 8 145 26t117 32t53 14q15 0 17.5 -14.5t-3.5 -48.5q-68 -326 -249 -1184q-15 -74 8 -74q18 0 68 34t90 75zM606 854q44 0 68 -27.5t24 -68.5
q0 -52 -33 -89.5t-83 -37.5q-39 0 -64.5 27t-25.5 69q0 46 31 86.5t83 40.5z" />
    <glyph glyph-name="Lslash" unicode="&#x141;" horiz-adv-x="1128" 
d="M1034 344l60 -22q-88 -242 -129 -322h-918l14 57q44 3 68.5 6t48 12t34 19t22 33.5t17.5 48t15 70.5l62 323l-217 -143l20 102l217 144l82 422q8 42 11 66.5t-1 46t-12 31t-30 17.5t-46 11t-69 6l14 57h528l-12 -57q-45 -4 -68.5 -6.5t-47 -11.5t-33 -17t-20.5 -31
t-16 -45t-14 -67l-59 -295l281 184l-29 -111l-272 -180l-80 -440q-22 -116 20 -150q35 -30 174 -30q102 0 153.5 13t88.5 50q59 56 143 209z" />
    <glyph glyph-name="lslash" unicode="&#x142;" horiz-adv-x="571" 
d="M653 1010l-20 -103l-199 -149l-110 -539q-16 -88 8 -88q17 0 66.5 35t88.5 74l31 -50q-79 -92 -170 -153.5t-145 -61.5q-90 0 -39 232l86 418l-174 -136l20 105l176 135l105 494q14 68 -1 86.5t-87 19.5l-56 2l11 53q71 7 143.5 24.5t117 31.5t56.5 14q26 0 14 -59
l-118 -535z" />
    <glyph glyph-name="Nacute" unicode="&#x143;" horiz-adv-x="1443" 
d="M1571 1329l-12 -57q-90 -4 -124 -31t-55 -98q-36 -121 -80 -348l-153 -811h-70l-602 1077h-6l-104 -533q-45 -227 -52 -344q-4 -70 30.5 -94.5t143.5 -32.5l-12 -57h-475l14 57q81 5 121 31t60 92q29 89 86 352l102 488q16 88 13 120.5t-23 69.5q-19 32 -54.5 44.5
t-117.5 17.5l14 57h309l592 -1024h6l92 490q46 242 54 350q6 71 -29.5 96t-148.5 31l16 57h465zM1194 1544l-6 -16l-393 -129l-27 53q61 39 176 112.5t160 102.5q21 -6 52.5 -50t37.5 -73z" />
    <glyph glyph-name="nacute" unicode="&#x144;" horiz-adv-x="1095" 
d="M993 229l31 -51q-88 -97 -171 -150t-130 -53q-87 0 -35 215q41 168 107 449q13 56 14.5 88t-5.5 43.5t-24 11.5q-62 0 -197.5 -139.5t-213.5 -271.5q-45 -183 -82 -355q-85 -12 -162 -41l-14 17q79 302 165 690q7 32 8.5 50.5t-2 25t-10.5 6.5q-14 0 -54.5 -28t-76.5 -64
l-26 53q85 90 168.5 143.5t130.5 53.5q75 0 20 -234l-39 -164h4q89 122 186 210.5t177 137.5q83 50 141 50q19 0 33 -5t26.5 -23.5t17 -49.5t-1.5 -87t-24 -132q-56 -248 -96 -416q-19 -74 4 -74q15 0 53.5 27t77.5 67zM956 1354l-323 -348l-51 32q73 117 188 324
q20 6 87.5 13.5t92.5 4.5z" />
    <glyph glyph-name="uni0145" unicode="&#x145;" horiz-adv-x="1443" 
d="M1571 1329l-12 -57q-90 -4 -124 -31t-55 -98q-36 -121 -80 -348l-153 -811h-70l-602 1077h-6l-104 -533q-45 -227 -52 -344q-4 -70 30.5 -94.5t143.5 -32.5l-12 -57h-475l14 57q81 5 121 31t60 92q29 89 86 352l102 488q16 88 13 120.5t-23 69.5q-19 32 -54.5 44.5
t-117.5 17.5l14 57h309l592 -1024h6l92 490q46 242 54 350q6 71 -29.5 96t-148.5 31l16 57h465zM702 -25q54 0 90.5 -37.5t36.5 -99.5q1 -52 -21 -94.5t-60 -70.5t-79.5 -46t-88.5 -28l-19 57q71 27 107.5 54.5t36.5 68.5q0 53 -76 74q-25 7 -25 41q0 35 28 58t70 23z" />
    <glyph glyph-name="uni0146" unicode="&#x146;" horiz-adv-x="1095" 
d="M993 229l31 -51q-88 -97 -171 -150t-130 -53q-87 0 -35 215q41 168 107 449q13 56 14.5 88t-5.5 43.5t-24 11.5q-62 0 -197.5 -139.5t-213.5 -271.5q-45 -183 -82 -355q-85 -12 -162 -41l-14 17q79 302 165 690q7 32 8.5 50.5t-2 25t-10.5 6.5q-14 0 -54.5 -28t-76.5 -64
l-26 53q85 90 168.5 143.5t130.5 53.5q75 0 20 -234l-39 -164h4q89 122 186 210.5t177 137.5q83 50 141 50q19 0 33 -5t26.5 -23.5t17 -49.5t-1.5 -87t-24 -132q-56 -248 -96 -416q-19 -74 4 -74q15 0 53.5 27t77.5 67zM477 -86q53 0 90 -38t37 -101q0 -52 -22.5 -94.5
t-61 -70.5t-80 -46t-88.5 -29l-16 57q69 26 105 54.5t36 68.5q0 52 -74 74q-24 7 -24 41q0 36 28 60t70 24z" />
    <glyph glyph-name="Ncaron" unicode="&#x147;" horiz-adv-x="1443" 
d="M1571 1329l-12 -57q-90 -4 -124 -31t-55 -98q-36 -121 -80 -348l-153 -811h-70l-602 1077h-6l-104 -533q-45 -227 -52 -344q-4 -70 30.5 -94.5t143.5 -32.5l-12 -57h-475l14 57q81 5 121 31t60 92q29 89 86 352l102 488q16 88 13 120.5t-23 69.5q-19 32 -54.5 44.5
t-117.5 17.5l14 57h309l592 -1024h6l92 490q46 242 54 350q6 71 -29.5 96t-148.5 31l16 57h465zM1182 1638l30 -47q-162 -107 -282 -217h-53q-99 116 -215 217l38 47q97 -40 224 -118q144 77 258 118z" />
    <glyph glyph-name="ncaron" unicode="&#x148;" horiz-adv-x="1095" 
d="M993 229l31 -51q-88 -97 -171 -150t-130 -53q-87 0 -35 215q41 168 107 449q13 56 14.5 88t-5.5 43.5t-24 11.5q-62 0 -197.5 -139.5t-213.5 -271.5q-45 -183 -82 -355q-85 -12 -162 -41l-14 17q79 302 165 690q7 32 8.5 50.5t-2 25t-10.5 6.5q-14 0 -54.5 -28t-76.5 -64
l-26 53q85 90 168.5 143.5t130.5 53.5q75 0 20 -234l-39 -164h4q89 122 186 210.5t177 137.5q83 50 141 50q19 0 33 -5t26.5 -23.5t17 -49.5t-1.5 -87t-24 -132q-56 -248 -96 -416q-19 -74 4 -74q15 0 53.5 27t77.5 67zM891 1380l47 -39q-172 -194 -268 -331h-49
q-45 132 -148 333l53 37q62 -71 146 -192q119 115 219 192z" />
    <glyph glyph-name="napostrophe" unicode="&#x149;" horiz-adv-x="1099" 
d="M162 1020l-21 57q168 65 170 162q5 76 -100 104q-10 2 -17 11t-6 22q1 37 31.5 60.5t65.5 23.5q67 0 117 -50.5t47 -133.5q-2 -52 -29.5 -97t-71 -75.5t-89.5 -50.5t-97 -33zM989 227l31 -51q-88 -95 -172 -148t-129 -53q-87 0 -37 205q20 81 58 242t57 242
q16 69 12 93.5t-27 24.5q-61 0 -201.5 -147.5t-213.5 -280.5q-40 -137 -80 -338q-83 -12 -162 -41l-14 17q100 399 165 690q17 82 -4 82q-14 0 -54.5 -28t-76.5 -64l-26 53q85 89 168 143t129 54q77 0 22 -234l-39 -170h4q92 127 189 215t182 139q77 50 141 50
q17 0 29.5 -4.5t24 -20.5t15.5 -42t0 -73t-19 -110q-30 -130 -109 -465q-16 -72 6 -72q14 0 53 26.5t78 65.5z" />
    <glyph glyph-name="Eng" unicode="&#x14a;" horiz-adv-x="1443" 
d="M1571 1329l-12 -55q-86 -5 -123 -30.5t-56 -94.5q-49 -193 -80 -354l-124 -664q-31 -158 -62.5 -261.5t-77.5 -174.5q-90 -135 -207 -135q-38 0 -64 19.5t-26 47.5q0 32 24.5 68.5t43.5 36.5q11 0 35 -12.5t49 -12.5q50 0 96.5 75.5t75.5 225.5l-588 1053h-4l-104 -531
q-42 -218 -50 -346q-6 -70 29.5 -95t145.5 -34l-15 -55h-475l14 55q81 6 120.5 31.5t60.5 91.5q43 156 84 352l102 490q16 87 13 120t-23 68q-18 31 -54 45.5t-118 20.5l14 55h309l592 -1024h6l90 490q46 239 54 356q6 69 -31.5 93t-144.5 30l12 55h469z" />
    <glyph glyph-name="eng" unicode="&#x14b;" horiz-adv-x="1062" 
d="M139 676l-28 49q79 85 165 141t136 56q76 0 20 -236l-41 -178h4q175 237 383 366q74 48 137 48q97 0 50 -220q-17 -81 -50.5 -244.5t-50.5 -244.5q-41 -198 -97.5 -308.5t-148.5 -191.5q-72 -64 -133 -93.5t-100 -29.5q-31 0 -56.5 18.5t-25.5 47.5q0 22 16.5 52.5
t36.5 47.5q25 18 43 6q55 -32 103 -32q50 0 85.5 58t65.5 202l144 686q12 58 9 82t-22 24q-59 0 -202 -149.5t-217 -278.5q-35 -124 -78 -338q-86 -12 -164 -41l-12 17q83 345 161 690q18 84 -2 84q-14 0 -54 -27t-77 -63z" />
    <glyph glyph-name="Omacron" unicode="&#x14c;" horiz-adv-x="1456" 
d="M883 1362q246 0 397.5 -164t151.5 -424q0 -162 -56 -309.5t-154 -257t-238.5 -174t-301.5 -64.5q-244 0 -395.5 161t-151.5 421q0 159 57 307t155 259t238.5 178t297.5 67zM868 1288q-112 0 -211 -67.5t-165.5 -176.5t-105 -245t-38.5 -273q0 -140 36 -246.5
t116.5 -171.5t197.5 -65q95 0 179.5 46t145.5 123t105.5 175t66.5 204.5t22 209.5q0 105 -19.5 190.5t-59.5 153.5t-109 105.5t-161 37.5zM1159 1577l-29 -113h-466l28 113h467z" />
    <glyph glyph-name="omacron" unicode="&#x14d;" horiz-adv-x="970" 
d="M369 -25q-73 0 -128.5 27t-87 73t-46.5 102t-15 120q0 190 88 338.5t221 218.5q126 68 232 68q132 0 204 -84.5t72 -237.5q0 -138 -57 -273t-162 -223q-153 -129 -321 -129zM444 59q32 0 64 13q83 34 148.5 185t64.5 343q0 118 -43.5 180t-114.5 62q-35 0 -74 -17
q-31 -14 -64.5 -52.5t-67 -100.5t-55 -159t-21.5 -210q0 -114 44 -179t119 -65zM860 1227l-26 -113h-463l28 113h461z" />
    <glyph glyph-name="Obreve" unicode="&#x14e;" horiz-adv-x="1456" 
d="M883 1362q246 0 397.5 -164t151.5 -424q0 -162 -56 -309.5t-154 -257t-238.5 -174t-301.5 -64.5q-244 0 -395.5 161t-151.5 421q0 159 57 307t155 259t238.5 178t297.5 67zM868 1288q-112 0 -211 -67.5t-165.5 -176.5t-105 -245t-38.5 -273q0 -140 36 -246.5
t116.5 -171.5t197.5 -65q95 0 179.5 46t145.5 123t105.5 175t66.5 204.5t22 209.5q0 105 -19.5 190.5t-59.5 153.5t-109 105.5t-161 37.5zM1112 1669h66q-22 -118 -94 -181t-185 -63q-107 0 -163 63.5t-46 180.5h66q8 -53 47 -87t112 -34q134 0 197 121z" />
    <glyph glyph-name="obreve" unicode="&#x14f;" horiz-adv-x="970" 
d="M369 -25q-73 0 -128.5 27t-87 73t-46.5 102t-15 120q0 190 88 338.5t221 218.5q126 68 232 68q132 0 204 -84.5t72 -237.5q0 -138 -57 -273t-162 -223q-153 -129 -321 -129zM444 59q32 0 64 13q83 34 148.5 185t64.5 343q0 118 -43.5 180t-114.5 62q-35 0 -74 -17
q-31 -14 -64.5 -52.5t-67 -100.5t-55 -159t-21.5 -210q0 -114 44 -179t119 -65zM809 1315h57q-23 -145 -97 -209t-175 -64q-48 0 -85.5 13.5t-67 45t-37 84t3.5 130.5h57q2 -71 40 -110.5t105 -39.5t120 39.5t79 110.5z" />
    <glyph glyph-name="Ohungarumlaut" unicode="&#x150;" horiz-adv-x="1456" 
d="M883 1362q246 0 397.5 -164t151.5 -424q0 -162 -56 -309.5t-154 -257t-238.5 -174t-301.5 -64.5q-244 0 -395.5 161t-151.5 421q0 159 57 307t155 259t238.5 178t297.5 67zM868 1288q-112 0 -211 -67.5t-165.5 -176.5t-105 -245t-38.5 -273q0 -140 36 -246.5
t116.5 -171.5t197.5 -65q95 0 179.5 46t145.5 123t105.5 175t66.5 204.5t22 209.5q0 105 -19.5 190.5t-59.5 153.5t-109 105.5t-161 37.5zM967 1669v-29l-217 -219l-52 31q57 114 123 254q22 7 76 -7t70 -30zM1251 1669l-2 -29l-217 -219l-49 31q67 140 121 254
q25 7 78 -7.5t69 -29.5z" />
    <glyph glyph-name="ohungarumlaut" unicode="&#x151;" horiz-adv-x="970" 
d="M369 -25q-73 0 -128.5 27t-87 73t-46.5 102t-15 120q0 190 88 338.5t221 218.5q126 68 232 68q132 0 204 -84.5t72 -237.5q0 -138 -57 -273t-162 -223q-153 -129 -321 -129zM444 59q32 0 64 13q83 34 148.5 185t64.5 343q0 118 -43.5 180t-114.5 62q-35 0 -74 -17
q-31 -14 -64.5 -52.5t-67 -100.5t-55 -159t-21.5 -210q0 -114 44 -179t119 -65zM684 1333l-242 -329l-55 32q102 234 129 312q22 6 81.5 9t80.5 -1zM967 1333l-242 -329l-51 32q91 214 127 312q21 6 80.5 9t81.5 -1z" />
    <glyph glyph-name="OE" unicode="&#x152;" horiz-adv-x="1947" 
d="M1763 0h-620q-73 0 -191 -12q-101 -11 -170 -11q-147 0 -262 37.5t-185 96.5t-116 138.5t-63 155.5t-17 156q0 188 69.5 340t189.5 250t278 150t338 51q86 0 207 -11.5t170 -11.5h561q-2 -16 -15 -129.5t-22 -179.5l-62 -4q0 121 -28 178q-20 37 -60 50t-149 13h-139
q-52 0 -64.5 -11.5t-23.5 -67.5l-86 -445h182q46 0 74.5 1.5t53.5 9t38 15t27 28.5t22.5 40.5t23.5 57.5h62l-78 -391h-61q1 41 0 62t-7.5 42.5t-16 29.5t-32 15t-50.5 8.5t-75 1.5h-178l-69 -360q-15 -87 -13 -130t23 -61q19 -18 61.5 -23t134.5 -5q113 0 170 14t97 55
q68 62 141 195l57 -21q-107 -274 -127 -317zM1018 213l176 913q10 61 2.5 84.5t-35.5 36.5q-60 31 -180 31q-99 0 -190.5 -28t-171 -86.5t-138.5 -141.5t-93 -201t-34 -258q0 -68 12 -134.5t44 -137.5t81 -123.5t132 -85.5t188 -31q78 4 129 27q59 24 78 135z" />
    <glyph glyph-name="oe" unicode="&#x153;" horiz-adv-x="1413" 
d="M1313 266l33 -49q-219 -242 -435 -242q-70 0 -128 40.5t-81 138.5h-2q-62 -77 -159 -128t-185 -51q-57 0 -103 19.5t-75.5 51t-49 74.5t-28 88t-8.5 93q0 187 84 332.5t211 216.5q129 72 231 72q83 0 144.5 -46.5t87.5 -134.5h4q72 75 175 128t185 53q83 0 133 -47.5
t50 -118.5q0 -48 -25.5 -93t-70.5 -81t-97.5 -66.5t-117.5 -55.5t-120 -42.5t-114 -32.5q-4 -27 -4 -55q0 -226 160 -226q137 0 305 162zM1225 727q1 51 -25 77.5t-67 26.5q-47 0 -93 -26q-22 -14 -45.5 -37.5t-51 -64t-50.5 -105t-35 -143.5q197 56 281 123t86 149z
M713 608q0 118 -41 176t-115 58q-34 0 -68 -15q-31 -13 -64.5 -48.5t-66.5 -95.5t-54.5 -156.5t-22.5 -211.5q0 -113 39 -183.5t112 -70.5q33 0 66 17q77 33 146 183.5t69 346.5z" />
    <glyph glyph-name="Racute" unicode="&#x154;" horiz-adv-x="1239" 
d="M1210 37l-16 -53h-25q-103 4 -168 27t-103 62t-77 111q-53 100 -137 303q-23 57 -49 76t-80 19h-80l-57 -320q-10 -48 -14 -76t-0.5 -52.5t10.5 -35.5t29 -20.5t46.5 -13t69.5 -7.5l-12 -57h-531l15 57q44 5 67 8t46.5 13t33.5 20t21.5 35t17.5 51.5t16 75.5l160 823
q9 47 12.5 71.5t0.5 48t-9.5 32.5t-28 18t-45 12t-69.5 7l12 57h459q202 0 295 -63q127 -81 127 -252q0 -75 -26 -139.5t-72 -112t-101.5 -81.5t-120.5 -56q51 -135 121 -275q75 -148 127 -217q33 -42 63 -62t72 -34zM489 649h89q138 0 215 51q70 46 110.5 125t40.5 172
q0 129 -61.5 197t-169.5 68q-63 0 -90 -21q-23 -17 -37 -90zM1059 1544l-4 -16l-393 -129l-27 53q61 39 176 112.5t160 102.5q21 -6 52 -50t36 -73z" />
    <glyph glyph-name="racute" unicode="&#x155;" horiz-adv-x="757" 
d="M125 670l-29 49q78 86 164 144.5t131 58.5q79 0 29 -238l-21 -100h7q78 151 160.5 244.5t142.5 93.5q28 0 53 -15.5t37 -38.5q28 -42 -2 -94q-23 -38 -58 -63q-28 -21 -47 -2q-33 36 -71 36q-40 0 -99 -83q-94 -132 -141 -250q-31 -132 -82 -398q-81 -13 -160 -39l-16 17
q94 386 147 682q9 51 8.5 70.5t-12.5 19.5q-15 0 -58.5 -28t-82.5 -66zM821 1354l-323 -348l-52 32q82 132 189 324q20 6 87.5 13.5t92.5 4.5z" />
    <glyph glyph-name="uni0156" unicode="&#x156;" horiz-adv-x="1239" 
d="M1210 37l-16 -53h-25q-103 4 -168 27t-103 62t-77 111q-53 100 -137 303q-23 57 -49 76t-80 19h-80l-57 -320q-10 -48 -14 -76t-0.5 -52.5t10.5 -35.5t29 -20.5t46.5 -13t69.5 -7.5l-12 -57h-531l15 57q44 5 67 8t46.5 13t33.5 20t21.5 35t17.5 51.5t16 75.5l160 823
q9 47 12.5 71.5t0.5 48t-9.5 32.5t-28 18t-45 12t-69.5 7l12 57h459q202 0 295 -63q127 -81 127 -252q0 -75 -26 -139.5t-72 -112t-101.5 -81.5t-120.5 -56q51 -135 121 -275q75 -148 127 -217q33 -42 63 -62t72 -34zM489 649h89q138 0 215 51q70 46 110.5 125t40.5 172
q0 129 -61.5 197t-169.5 68q-63 0 -90 -21q-23 -17 -37 -90zM688 -41q52 0 89 -38t38 -99q0 -52 -22.5 -94.5t-61 -71t-80 -46.5t-88.5 -28l-16 58q70 26 105.5 53.5t35.5 68.5q0 52 -74 74q-24 6 -24 41t27.5 58.5t70.5 23.5z" />
    <glyph glyph-name="uni0157" unicode="&#x157;" horiz-adv-x="757" 
d="M125 670l-29 49q78 86 164 144.5t131 58.5q79 0 29 -238l-21 -100h7q78 151 160.5 244.5t142.5 93.5q28 0 53 -15.5t37 -38.5q28 -42 -2 -94q-23 -38 -58 -63q-28 -21 -47 -2q-33 36 -71 36q-40 0 -99 -83q-94 -132 -141 -250q-31 -132 -82 -398q-81 -13 -160 -39l-16 17
q94 386 147 682q9 51 8.5 70.5t-12.5 19.5q-15 0 -58.5 -28t-82.5 -66zM193 -78q53 0 89.5 -38t36.5 -99q1 -52 -21.5 -94.5t-60.5 -71t-79.5 -46.5t-87.5 -28l-19 58q70 26 106 53.5t36 67.5q0 53 -74 75q-25 7 -25 41q0 35 28.5 58.5t70.5 23.5z" />
    <glyph glyph-name="Rcaron" unicode="&#x158;" horiz-adv-x="1239" 
d="M1210 37l-16 -53h-25q-103 4 -168 27t-103 62t-77 111q-53 100 -137 303q-23 57 -49 76t-80 19h-80l-57 -320q-10 -48 -14 -76t-0.5 -52.5t10.5 -35.5t29 -20.5t46.5 -13t69.5 -7.5l-12 -57h-531l15 57q44 5 67 8t46.5 13t33.5 20t21.5 35t17.5 51.5t16 75.5l160 823
q9 47 12.5 71.5t0.5 48t-9.5 32.5t-28 18t-45 12t-69.5 7l12 57h459q202 0 295 -63q127 -81 127 -252q0 -75 -26 -139.5t-72 -112t-101.5 -81.5t-120.5 -56q51 -135 121 -275q75 -148 127 -217q33 -42 63 -62t72 -34zM489 649h89q138 0 215 51q70 46 110.5 125t40.5 172
q0 129 -61.5 197t-169.5 68q-63 0 -90 -21q-23 -17 -37 -90zM999 1669l31 -47q-153 -99 -282 -217h-56q-94 113 -213 217l39 47q99 -41 221 -119q156 82 260 119z" />
    <glyph glyph-name="rcaron" unicode="&#x159;" horiz-adv-x="757" 
d="M125 670l-29 49q78 86 164 144.5t131 58.5q79 0 29 -238l-21 -100h7q78 151 160.5 244.5t142.5 93.5q28 0 53 -15.5t37 -38.5q28 -42 -2 -94q-23 -38 -58 -63q-28 -21 -47 -2q-33 36 -71 36q-40 0 -99 -83q-94 -132 -141 -250q-31 -132 -82 -398q-81 -13 -160 -39l-16 17
q94 386 147 682q9 51 8.5 70.5t-12.5 19.5q-15 0 -58.5 -28t-82.5 -66zM752 1380l47 -39q-177 -200 -269 -331h-49q-53 155 -147 333l53 37q57 -65 145 -192q115 111 220 192z" />
    <glyph glyph-name="Sacute" unicode="&#x15a;" horiz-adv-x="966" 
d="M76 403l59 7q6 -49 20 -97t40.5 -98.5t62.5 -88t89.5 -61.5t117.5 -24q110 0 176 70.5t66 187.5q0 80 -45 145.5t-140 139.5l-59 45q-47 37 -80 67.5t-72 77t-59.5 102t-20.5 115.5q0 163 118 267t302 104q96 0 203 -35q23 -8 54 -21t34 -14q-3 -37 -4 -85.5t-1 -110.5
t-1 -95l-62 -6q-32 297 -245 297q-101 0 -162 -69.5t-61 -163.5q0 -56 26 -105.5t61.5 -84.5t96.5 -81l61 -45q119 -88 180.5 -175t61.5 -203q0 -117 -63.5 -209t-166.5 -139.5t-225 -47.5q-114 0 -214.5 40.5t-141.5 86.5q-1 21 -2.5 124.5t-3.5 182.5zM969 1577l-6 -16
l-394 -129l-26 53q61 39 176 112.5t160 102.5q21 -6 52.5 -50t37.5 -73z" />
    <glyph glyph-name="sacute" unicode="&#x15b;" horiz-adv-x="696" 
d="M233 -25q-75 0 -143.5 48t-69.5 104q0 53 64 90q35 18 53 -6q42 -61 97 -95t108 -34q56 0 91.5 34t35.5 81q0 39 -26 76t-97 92q-45 35 -68.5 55.5t-54.5 54t-45 68.5t-14 75q0 111 110 203q50 43 116 72t118 29q67 0 115.5 -37.5t48.5 -81.5q0 -26 -15.5 -50.5
t-40.5 -39.5q-28 -17 -47 8q-76 98 -163 98q-44 0 -74.5 -30t-30.5 -78t34 -88t101 -91q95 -69 135.5 -122.5t40.5 -120.5q0 -77 -59.5 -151t-148 -118.5t-171.5 -44.5zM788 1354l-323 -348l-51 32q73 117 188 324q20 6 87.5 13.5t92.5 4.5z" />
    <glyph glyph-name="Scircumflex" unicode="&#x15c;" horiz-adv-x="966" 
d="M76 403l59 7q6 -49 20 -97t40.5 -98.5t62.5 -88t89.5 -61.5t117.5 -24q110 0 176 70.5t66 187.5q0 80 -45 145.5t-140 139.5l-59 45q-47 37 -80 67.5t-72 77t-59.5 102t-20.5 115.5q0 163 118 267t302 104q96 0 203 -35q23 -8 54 -21t34 -14q-3 -37 -4 -85.5t-1 -110.5
t-1 -95l-62 -6q-32 297 -245 297q-101 0 -162 -69.5t-61 -163.5q0 -56 26 -105.5t61.5 -84.5t96.5 -81l61 -45q119 -88 180.5 -175t61.5 -203q0 -117 -63.5 -209t-166.5 -139.5t-225 -47.5q-114 0 -214.5 40.5t-141.5 86.5q-1 21 -2.5 124.5t-3.5 182.5zM928 1468l-37 -47
q-103 45 -225 117q-154 -79 -260 -117l-29 49q149 95 282 216h54q92 -107 215 -218z" />
    <glyph glyph-name="scircumflex" unicode="&#x15d;" horiz-adv-x="696" 
d="M233 -25q-75 0 -143.5 48t-69.5 104q0 53 64 90q35 18 53 -6q42 -61 97 -95t108 -34q56 0 91.5 34t35.5 81q0 39 -26 76t-97 92q-45 35 -68.5 55.5t-54.5 54t-45 68.5t-14 75q0 111 110 203q50 43 116 72t118 29q67 0 115.5 -37.5t48.5 -81.5q0 -26 -15.5 -50.5
t-40.5 -39.5q-28 -17 -47 8q-76 98 -163 98q-44 0 -74.5 -30t-30.5 -78t34 -88t101 -91q95 -69 135.5 -122.5t40.5 -120.5q0 -77 -59.5 -151t-148 -118.5t-171.5 -44.5zM705 1038l-52 -37q-50 54 -147 193q-128 -124 -223 -193l-43 39q180 203 268 332h51q43 -137 146 -334z
" />
    <glyph glyph-name="uni015E" unicode="&#x15e;" horiz-adv-x="966" 
d="M76 403l59 7q6 -49 20.5 -97t41 -98t62.5 -87t90 -61t118 -24q109 0 175.5 70.5t66.5 185.5q0 82 -45.5 147t-139.5 138l-63 47q-36 28 -62 50.5t-60.5 59t-55.5 71t-36.5 81t-15.5 94.5q0 164 119.5 269.5t306.5 105.5q94 0 197 -35q21 -8 50.5 -20t37.5 -15
q-4 -37 -5 -85.5t-0.5 -110.5t-0.5 -95l-62 -6q-31 295 -251 295q-102 0 -159.5 -68t-57.5 -163q0 -79 46.5 -140t137.5 -128l63 -48q117 -84 178.5 -171t61.5 -203q0 -111 -55.5 -199.5t-147.5 -138.5t-203 -58l-22 -26q-21 -27 -21 -42.5t23 -41.5q59 -70 59 -133
q-1 -59 -71 -114.5t-176 -86.5l-25 55q68 31 103 60t36 61q2 27 -35 74q-32 37 -34.5 60.5t26.5 60.5l58 71q-101 6 -193 43t-133 82q-1 21 -2.5 124.5t-3.5 182.5z" />
    <glyph glyph-name="uni015F" unicode="&#x15f;" horiz-adv-x="692" 
d="M506 922q66 0 116 -38.5t50 -80.5q0 -56 -56 -90q-32 -19 -47 8q-75 96 -163 96q-44 0 -74.5 -29t-30.5 -77t34.5 -89.5t100.5 -91.5q93 -69 132.5 -122t39.5 -119q0 -97 -85.5 -183t-198.5 -116l-31 -37q-22 -27 -22.5 -42t22.5 -42q32 -42 45 -71t12 -62
q-3 -60 -73 -115.5t-173 -85.5l-26 57q135 58 141 117q1 9 -1 17.5t-7 17.5t-8 14t-10 15t-9 12q-33 36 -35.5 59.5t25.5 59.5l59 71v2q-74 -3 -144.5 43.5t-70.5 104.5q-1 27 16.5 51.5t45.5 38.5q36 19 55 -6q43 -60 96.5 -93.5t106.5 -33.5q57 1 91 34.5t34 80.5
q0 39 -25 76.5t-94 93.5q-43 33 -67.5 55t-54.5 54.5t-44 67t-14 72.5q0 113 110 205q51 43 116 72t116 29z" />
    <glyph glyph-name="Scaron" unicode="&#x160;" horiz-adv-x="966" 
d="M76 403l59 7q6 -49 20 -97t40.5 -98.5t62.5 -88t89.5 -61.5t117.5 -24q110 0 176 70.5t66 187.5q0 80 -45 145.5t-140 139.5l-59 45q-47 37 -80 67.5t-72 77t-59.5 102t-20.5 115.5q0 163 118 267t302 104q96 0 203 -35q23 -8 54 -21t34 -14q-3 -37 -4 -85.5t-1 -110.5
t-1 -95l-62 -6q-32 297 -245 297q-101 0 -162 -69.5t-61 -163.5q0 -56 26 -105.5t61.5 -84.5t96.5 -81l61 -45q119 -88 180.5 -175t61.5 -203q0 -117 -63.5 -209t-166.5 -139.5t-225 -47.5q-114 0 -214.5 40.5t-141.5 86.5q-1 21 -2.5 124.5t-3.5 182.5zM918 1702l28 -45
q-169 -116 -282 -219h-54q-95 114 -215 219l41 45q108 -45 221 -117q147 79 261 117z" />
    <glyph glyph-name="scaron" unicode="&#x161;" horiz-adv-x="696" 
d="M233 -25q-75 0 -143.5 48t-69.5 104q0 53 64 90q35 18 53 -6q42 -61 97 -95t108 -34q56 0 91.5 34t35.5 81q0 39 -26 76t-97 92q-45 35 -68.5 55.5t-54.5 54t-45 68.5t-14 75q0 111 110 203q50 43 116 72t118 29q67 0 115.5 -37.5t48.5 -81.5q0 -26 -15.5 -50.5
t-40.5 -39.5q-28 -17 -47 8q-76 98 -163 98q-44 0 -74.5 -30t-30.5 -78t34 -88t101 -91q95 -69 135.5 -122.5t40.5 -120.5q0 -77 -59.5 -151t-148 -118.5t-171.5 -44.5zM719 1380l47 -39q-183 -207 -268 -331h-49q-45 132 -148 333l53 37q70 -81 144 -192q142 132 221 192z
" />
    <glyph glyph-name="uni0162" unicode="&#x162;" horiz-adv-x="1241" 
d="M1307 1380h47q-23 -115 -49 -364l-66 -4q0 132 -25 186q-15 35 -58.5 47t-154.5 12h-120l-191 -1009q-8 -44 -11 -70t1.5 -48.5t14 -33.5t33.5 -20t53 -12.5t79 -6.5l-12 -57h-227l-48 -57q-22 -27 -22 -43t24 -45q66 -81 66 -142q-4 -65 -77.5 -124t-188.5 -93l-27 60
q147 67 150 127q2 30 -39 81q-35 39 -37 66t29 66l86 104h-265l15 57q46 3 73.5 6.5t52 13t36 20t23 34t17.5 48t15 69.5l192 1009h-102q-122 0 -168.5 -12.5t-77.5 -48.5q-44 -52 -102 -184h-64q67 222 97 368h47q14 -33 33.5 -42t62.5 -9h778q38 0 57 10t50 41z" />
    <glyph glyph-name="uni0163" unicode="&#x163;" horiz-adv-x="634" 
d="M446 805l-116 -555q-10 -49 -11 -76.5t5 -37t18 -9.5q24 0 82 38.5t98 78.5l29 -47q-66 -80 -164 -150l-78 -98q-21 -27 -21 -43t23 -43q62 -76 62 -135q-4 -60 -75.5 -116t-178.5 -89l-27 57q139 63 144 121q1 12 -3.5 24.5t-8.5 18.5t-14 19.5t-11 15.5q-33 37 -36 61
t27 62l62 80q-21 -7 -39 -7q-29 0 -46.5 24.5t-22 85.5t19.5 165l119 555h-150l-6 18l51 66h123l47 192l170 133l21 -14l-72 -311h235l-55 -74z" />
    <glyph glyph-name="Tcaron" unicode="&#x164;" horiz-adv-x="1241" 
d="M1307 1380h47q-23 -115 -49 -364l-66 -4q0 132 -25 186q-15 35 -58.5 47t-154.5 12h-120l-191 -1009q-8 -44 -11 -70t1.5 -48.5t14 -33.5t33.5 -20t53 -12.5t79 -6.5l-12 -57h-576l15 57q46 3 73.5 6.5t52 13t36 20t23 34t17.5 48t15 69.5l192 1009h-102
q-122 0 -168.5 -12.5t-77.5 -48.5q-44 -52 -102 -184h-64q67 222 97 368h47q14 -33 33.5 -42t62.5 -9h778q38 0 57 10t50 41zM1090 1669l28 -47q-162 -107 -282 -217h-54q-89 107 -215 217l39 47q90 -37 223 -119q149 79 261 119z" />
    <glyph glyph-name="tcaron" unicode="&#x165;" horiz-adv-x="634" 
d="M702 889l-55 -74l-201 -10l-116 -555q-10 -49 -11 -76.5t5 -37t18 -9.5q24 0 82 38.5t98 78.5l29 -47q-64 -77 -164 -149.5t-174 -72.5q-29 0 -46.5 24.5t-22 85.5t19.5 165l119 555h-150l-6 18l51 66h123l47 192l170 133l21 -14l-72 -311h235zM754 1389q46 0 75 -38
t29 -98q0 -92 -61 -152.5t-152 -84.5l-22 53q60 31 89 59.5t29 67.5q0 28 -12 43.5t-39 28.5q-20 7 -20 41q0 32 25 56t59 24z" />
    <glyph glyph-name="Tbar" unicode="&#x166;" horiz-adv-x="1230" 
d="M1307 1380h43q-25 -123 -50 -362l-65 -6q0 126 -29 188q-16 37 -59.5 47t-155.5 10h-112l-103 -540h297l-22 -80h-289l-74 -389q-8 -45 -11.5 -71.5t1.5 -49t14 -33t34 -19t53 -12t79 -6.5l-12 -57h-576l15 57q47 3 74 6.5t51.5 12.5t35.5 19t23 34t18 48.5t15 70.5
l73 389h-270l21 80h264l104 540h-82q-126 0 -179 -12.5t-83 -46.5q-46 -51 -104 -186h-66q66 207 99 368h43q14 -33 33 -42t63 -9h780q38 0 58 10t51 41z" />
    <glyph glyph-name="tbar" unicode="&#x167;" horiz-adv-x="643" 
d="M713 889l-56 -74l-202 -10l-58 -268h199l-27 -78h-188l-43 -209q-25 -123 10 -123q25 0 83.5 38.5t96.5 78.5l31 -47q-63 -77 -163.5 -149.5t-174.5 -72.5q-28 0 -45.5 24t-22.5 85t19 166l45 209h-149l28 78h137l58 268h-150l-8 18l53 66h125l47 192l170 133l21 -16
l-74 -309h238z" />
    <glyph glyph-name="Utilde" unicode="&#x168;" horiz-adv-x="1447" 
d="M1589 1329l-14 -57q-94 -4 -128 -28t-54 -87q-34 -120 -82 -360l-33 -166q-34 -178 -89 -308t-149 -219q-73 -67 -165.5 -101t-188.5 -34q-200 0 -319 111q-157 147 -93 495l97 510q9 44 12 69t0 47.5t-10.5 32.5t-28.5 18.5t-45.5 12t-69.5 7.5l15 57h522l-12 -57
q-43 -4 -65.5 -7t-46 -11.5t-33 -18t-21 -32.5t-17 -48t-14.5 -70l-94 -499q-24 -137 -15 -233t51.5 -156t102 -87.5t137.5 -27.5q180 0 289 136.5t166 428.5l31 150q46 247 53 362q3 62 -34 84.5t-148 28.5l14 57h479zM1184 1626l53 -33q-60 -170 -168 -170q-41 0 -141 47
q-6 2 -17.5 7t-18 7.5t-16 5t-18.5 4t-18 1.5q-53 0 -99 -90l-51 39q34 89 78 128.5t88 39.5t125 -37q79 -35 106 -35t49 21t48 65z" />
    <glyph glyph-name="utilde" unicode="&#x169;" horiz-adv-x="1095" 
d="M1014 238l28 -50q-78 -93 -167.5 -153t-139.5 -60q-26 0 -40 18t-16 65.5t19 131.5q20 82 37 172h-4q-74 -102 -160.5 -187.5t-164.5 -139.5q-85 -60 -162 -60q-132 0 -70 269q15 65 51.5 217t55.5 235q16 72 -5 72q-26 0 -139 -94l-24 53q88 86 176.5 140.5t134.5 54.5
q25 0 36 -17t9 -57.5t-18 -110.5q-18 -79 -111 -479q-31 -135 22 -135q52 0 136.5 74t156 165.5t111.5 163.5q58 255 76 342l157 54h23q-108 -440 -158 -705q-9 -49 -7.5 -65.5t13.5 -16.5q13 0 60 32.5t84 70.5zM922 1274l51 -27q-67 -180 -168 -180q-17 0 -35.5 5t-30 9.5
t-37.5 16t-36 16.5q-48 25 -88 25q-50 0 -99 -88l-49 32q34 91 79 134t89 43q40 0 121 -37q75 -35 108 -35q43 0 95 86z" />
    <glyph glyph-name="Umacron" unicode="&#x16a;" horiz-adv-x="1447" 
d="M1589 1329l-14 -57q-94 -4 -128 -28t-54 -87q-34 -120 -82 -360l-33 -166q-34 -178 -89 -308t-149 -219q-73 -67 -165.5 -101t-188.5 -34q-200 0 -319 111q-157 147 -93 495l97 510q9 44 12 69t0 47.5t-10.5 32.5t-28.5 18.5t-45.5 12t-69.5 7.5l15 57h522l-12 -57
q-43 -4 -65.5 -7t-46 -11.5t-33 -18t-21 -32.5t-17 -48t-14.5 -70l-94 -499q-24 -137 -15 -233t51.5 -156t102 -87.5t137.5 -27.5q180 0 289 136.5t166 428.5l31 150q46 247 53 362q3 62 -34 84.5t-148 28.5l14 57h479zM1210 1571l-28 -111h-469l30 111h467z" />
    <glyph glyph-name="umacron" unicode="&#x16b;" horiz-adv-x="1095" 
d="M1014 238l28 -50q-78 -93 -167.5 -153t-139.5 -60q-26 0 -40 18t-16 65.5t19 131.5q20 82 37 172h-4q-74 -102 -160.5 -187.5t-164.5 -139.5q-85 -60 -162 -60q-132 0 -70 269q15 65 51.5 217t55.5 235q16 72 -5 72q-26 0 -139 -94l-24 53q88 86 176.5 140.5t134.5 54.5
q25 0 36 -17t9 -57.5t-18 -110.5q-18 -79 -111 -479q-31 -135 22 -135q52 0 136.5 74t156 165.5t111.5 163.5q58 255 76 342l157 54h23q-108 -440 -158 -705q-9 -49 -7.5 -65.5t13.5 -16.5q13 0 60 32.5t84 70.5zM918 1227l-27 -113h-463l29 113h461z" />
    <glyph glyph-name="Ubreve" unicode="&#x16c;" horiz-adv-x="1447" 
d="M1589 1329l-14 -57q-94 -4 -128 -28t-54 -87q-34 -120 -82 -360l-33 -166q-34 -178 -89 -308t-149 -219q-73 -67 -165.5 -101t-188.5 -34q-200 0 -319 111q-157 147 -93 495l97 510q9 44 12 69t0 47.5t-10.5 32.5t-28.5 18.5t-45.5 12t-69.5 7.5l15 57h522l-12 -57
q-43 -4 -65.5 -7t-46 -11.5t-33 -18t-21 -32.5t-17 -48t-14.5 -70l-94 -499q-24 -137 -15 -233t51.5 -156t102 -87.5t137.5 -27.5q180 0 289 136.5t166 428.5l31 150q46 247 53 362q3 62 -34 84.5t-148 28.5l14 57h479zM1147 1640h63q-20 -117 -92.5 -180t-183.5 -63
q-107 0 -163 63t-46 180h63q10 -52 49.5 -86t110.5 -34q136 0 199 120z" />
    <glyph glyph-name="ubreve" unicode="&#x16d;" horiz-adv-x="1095" 
d="M1014 238l28 -50q-78 -93 -167.5 -153t-139.5 -60q-26 0 -40 18t-16 65.5t19 131.5q20 82 37 172h-4q-74 -102 -160.5 -187.5t-164.5 -139.5q-85 -60 -162 -60q-132 0 -70 269q15 65 51.5 217t55.5 235q16 72 -5 72q-26 0 -139 -94l-24 53q88 86 176.5 140.5t134.5 54.5
q25 0 36 -17t9 -57.5t-18 -110.5q-18 -79 -111 -479q-31 -135 22 -135q52 0 136.5 74t156 165.5t111.5 163.5q58 255 76 342l157 54h23q-108 -440 -158 -705q-9 -49 -7.5 -65.5t13.5 -16.5q13 0 60 32.5t84 70.5zM893 1315h57q-23 -145 -97 -209t-175 -64q-48 0 -85.5 13.5
t-67 45t-37 84t3.5 130.5h57q2 -71 40 -110.5t105 -39.5t120 39.5t79 110.5z" />
    <glyph glyph-name="Uring" unicode="&#x16e;" horiz-adv-x="1447" 
d="M1589 1329l-14 -57q-94 -4 -128 -28t-54 -87q-34 -120 -82 -360l-33 -166q-34 -178 -89 -308t-149 -219q-73 -67 -165.5 -101t-188.5 -34q-200 0 -319 111q-157 147 -93 495l97 510q9 44 12 69t0 47.5t-10.5 32.5t-28.5 18.5t-45.5 12t-69.5 7.5l15 57h522l-12 -57
q-43 -4 -65.5 -7t-46 -11.5t-33 -18t-21 -32.5t-17 -48t-14.5 -70l-94 -499q-24 -137 -15 -233t51.5 -156t102 -87.5t137.5 -27.5q180 0 289 136.5t166 428.5l31 150q46 247 53 362q3 62 -34 84.5t-148 28.5l14 57h479zM1145 1556q-1 -79 -60.5 -128.5t-138.5 -49.5
q-73 0 -120 46.5t-44 117.5q1 83 60 135t137 52q70 0 119.5 -48t46.5 -125zM1051 1559q0 44 -20.5 72t-57.5 28q-41 0 -67.5 -32.5t-28.5 -80.5q0 -43 20 -69.5t57 -26.5q40 0 68 31t29 78z" />
    <glyph glyph-name="uring" unicode="&#x16f;" horiz-adv-x="1095" 
d="M1014 238l28 -50q-78 -93 -167.5 -153t-139.5 -60q-26 0 -40 18t-16 65.5t19 131.5q20 82 37 172h-4q-74 -102 -160.5 -187.5t-164.5 -139.5q-85 -60 -162 -60q-132 0 -70 269q15 65 51.5 217t55.5 235q16 72 -5 72q-26 0 -139 -94l-24 53q88 86 176.5 140.5t134.5 54.5
q25 0 36 -17t9 -57.5t-18 -110.5q-18 -79 -111 -479q-31 -135 22 -135q52 0 136.5 74t156 165.5t111.5 163.5q58 255 76 342l157 54h23q-108 -440 -158 -705q-9 -49 -7.5 -65.5t13.5 -16.5q13 0 60 32.5t84 70.5zM711 1364q72 0 122.5 -48t49.5 -128q-3 -81 -64.5 -130.5
t-140.5 -49.5q-75 0 -123 47.5t-45 120.5q3 84 63 136t138 52zM705 1294q-39 0 -67.5 -32.5t-31.5 -81.5q0 -45 21.5 -74t58.5 -29q40 0 68.5 33t29.5 82q2 44 -19 73t-60 29z" />
    <glyph glyph-name="Uhungarumlaut" unicode="&#x170;" horiz-adv-x="1447" 
d="M1589 1329l-14 -57q-94 -4 -128 -28t-54 -87q-34 -120 -82 -360l-33 -166q-34 -178 -89 -308t-149 -219q-73 -67 -165.5 -101t-188.5 -34q-200 0 -319 111q-157 147 -93 495l97 510q9 44 12 69t0 47.5t-10.5 32.5t-28.5 18.5t-45.5 12t-69.5 7.5l15 57h522l-12 -57
q-43 -4 -65.5 -7t-46 -11.5t-33 -18t-21 -32.5t-17 -48t-14.5 -70l-94 -499q-24 -137 -15 -233t51.5 -156t102 -87.5t137.5 -27.5q180 0 289 136.5t166 428.5l31 150q46 247 53 362q3 62 -34 84.5t-148 28.5l14 57h479zM1004 1649v-29l-218 -219l-51 31q35 67 123 254
q22 7 76 -7t70 -30zM1288 1649l-2 -29l-215 -219l-51 31q67 140 121 254q25 7 78 -7.5t69 -29.5z" />
    <glyph glyph-name="uhungarumlaut" unicode="&#x171;" horiz-adv-x="1095" 
d="M1014 238l28 -50q-78 -93 -167.5 -153t-139.5 -60q-26 0 -40 18t-16 65.5t19 131.5q20 82 37 172h-4q-74 -102 -160.5 -187.5t-164.5 -139.5q-85 -60 -162 -60q-132 0 -70 269q15 65 51.5 217t55.5 235q16 72 -5 72q-26 0 -139 -94l-24 53q88 86 176.5 140.5t134.5 54.5
q25 0 36 -17t9 -57.5t-18 -110.5q-18 -79 -111 -479q-31 -135 22 -135q52 0 136.5 74t156 165.5t111.5 163.5q58 255 76 342l157 54h23q-108 -440 -158 -705q-9 -49 -7.5 -65.5t13.5 -16.5q13 0 60 32.5t84 70.5zM758 1333l-242 -329l-55 32q17 42 46 112t54.5 132t28.5 68
q21 6 81 9t81 -1zM1040 1333l-241 -329l-51 32q107 266 124 312q22 6 81.5 9t80.5 -1z" />
    <glyph glyph-name="Uogonek" unicode="&#x172;" horiz-adv-x="1447" 
d="M1589 1329l-14 -57q-96 -4 -130 -28t-52 -87q-34 -120 -82 -360l-31 -166q-36 -179 -91 -308.5t-149 -216.5q-105 -95 -233 -122q-193 -156 -193 -289q0 -34 23.5 -55t60.5 -21q41 0 97 23l16 -58l-115 -59q-44 -23 -88 -23q-64 0 -105.5 38.5t-41.5 103.5q0 154 231 325
v2q-86 -2 -175.5 24.5t-151.5 84.5q-155 148 -91 495l97 510q9 44 12 69t0 47.5t-10.5 32.5t-28.5 18.5t-45.5 12t-69.5 7.5l15 57h522l-12 -57q-43 -4 -65.5 -7t-46 -11.5t-33 -18t-21 -32.5t-17 -48t-14.5 -70l-94 -499q-23 -137 -14.5 -232.5t51 -155.5t102 -87
t137.5 -27q181 0 289.5 135.5t165.5 427.5l29 150q45 228 53 362q3 62 -33.5 84.5t-146.5 28.5l14 57h479z" />
    <glyph glyph-name="uogonek" unicode="&#x173;" horiz-adv-x="1095" 
d="M1014 238l26 -50q-132 -157 -254 -198q-86 -67 -137 -145.5t-51 -147.5q0 -30 21 -49t55 -21q32 0 92 25l14 -58l-110 -61q-36 -20 -84 -20q-60 0 -98.5 35.5t-38.5 97.5q0 83 71 177.5t182 178.5q-37 45 -4 188q3 15 37 170h-4q-149 -200 -323 -325q-85 -60 -164 -60
q-132 0 -70 269q15 65 51.5 217t55.5 235q16 72 -7 72q-24 0 -137 -94l-24 53q88 86 176.5 140.5t134.5 54.5q37 0 43.5 -39.5t-16.5 -145.5q-18 -79 -111 -479q-31 -133 22 -133q52 0 136.5 74t156 165.5t111.5 163.5q49 214 76 340l155 54h25q-95 -372 -160 -705
q-15 -82 6 -82q14 0 60.5 32t85.5 71z" />
    <glyph glyph-name="Wcircumflex" unicode="&#x174;" horiz-adv-x="1945" 
d="M2068 1329l-12 -57q-45 -6 -68 -12t-45.5 -15.5t-39.5 -32t-33.5 -50.5t-44.5 -83q-116 -222 -522 -1099h-68l-166 997h-6l-481 -997h-70l-125 1097q-5 47 -8.5 73t-12.5 49.5t-17 33.5t-28.5 19.5t-40.5 12.5t-59 7l12 57h480l-15 -57l-51 -6q-61 -9 -75 -32t-7 -106
l88 -831h4l476 1010h65l168 -1014h4q304 661 369 829q32 85 19.5 109t-91.5 35l-51 6l12 57h440zM1444 1444l-39 -49q-125 56 -223 118q-136 -72 -262 -118l-27 49q158 102 283 217l53 -2q101 -119 215 -215z" />
    <glyph glyph-name="wcircumflex" unicode="&#x175;" horiz-adv-x="1376" 
d="M948 199h4q275 379 277 510q0 50 -23 96q-13 27 0 53q11 27 36 45.5t52 18.5q41 0 67 -33.5t25 -87.5q0 -76 -81 -213q-90 -143 -435 -613h-63q-27 319 -62 623h-4q-208 -346 -381 -623h-59q-3 247 -25 660q-3 72 -9.5 100.5t-20.5 28.5q-24 0 -121 -100l-33 43
q69 92 143.5 153.5t124.5 61.5q38 0 57.5 -50.5t22.5 -160.5q8 -328 6 -463h5q262 444 372 643h54q15 -127 38 -362.5t33 -329.5zM1077 1038l-49 -37q-66 71 -147 193q-118 -114 -224 -193l-43 39q188 217 269 332h49q52 -156 145 -334z" />
    <glyph glyph-name="Ycircumflex" unicode="&#x176;" horiz-adv-x="1259" 
d="M1413 1329l-16 -57q-98 -11 -139.5 -36t-118.5 -122q-95 -119 -330 -455q-36 -51 -51 -118l-58 -283q-9 -47 -13 -74.5t0.5 -51t12.5 -34.5t33.5 -20t52 -12.5t78.5 -8.5l-14 -57h-565l14 57q47 3 72.5 6t50.5 12.5t36 20t23 35.5t18.5 51.5t16.5 75.5l53 270
q14 59 -10 123q-86 239 -174 471q-19 51 -30.5 74.5t-34 41.5t-47.5 23t-78 11l16 57h485l-14 -57l-70 -10q-49 -7 -58.5 -24.5t5.5 -63.5q116 -326 180 -486q231 325 320 475q31 54 21.5 73t-68.5 28l-60 8l17 57h444zM1114 1448l-39 -47q-107 46 -223 117
q-162 -81 -262 -117l-29 49q156 99 283 215h55q89 -107 215 -217z" />
    <glyph glyph-name="ycircumflex" unicode="&#x177;" horiz-adv-x="915" 
d="M502 162h4q54 81 83.5 128.5t80.5 136.5t76.5 160t25.5 124q0 38 -24 98q-9 25 4 55q12 25 38 41.5t52 16.5q36 0 61 -32t25 -85q3 -88 -74 -219q-147 -263 -362 -566q-221 -318 -373 -485l-223 -57l-17 47q280 183 477 446q-1 116 -21.5 320.5t-43.5 351.5
q-17 121 -43 121q-13 0 -47 -32.5t-70 -84.5l-37 49q60 93 129 159.5t123 66.5q44 0 70.5 -59.5t40.5 -188.5q30 -230 45 -512zM819 1038l-51 -37q-50 54 -147 193q-125 -121 -224 -193l-43 39q184 208 269 332h51q45 -142 145 -334z" />
    <glyph glyph-name="Ydieresis" unicode="&#x178;" horiz-adv-x="1259" 
d="M1413 1329l-16 -57q-98 -11 -139.5 -36t-118.5 -122q-95 -119 -330 -455q-36 -51 -51 -118l-58 -283q-9 -47 -13 -74.5t0.5 -51t12.5 -34.5t33.5 -20t52 -12.5t78.5 -8.5l-14 -57h-565l14 57q47 3 72.5 6t50.5 12.5t36 20t23 35.5t18.5 51.5t16.5 75.5l53 270
q14 59 -10 123q-86 239 -174 471q-19 51 -30.5 74.5t-34 41.5t-47.5 23t-78 11l16 57h485l-14 -57l-70 -10q-49 -7 -58.5 -24.5t5.5 -63.5q116 -326 180 -486q231 325 320 475q31 54 21.5 73t-68.5 28l-60 8l17 57h444zM657 1632q41 0 63.5 -27t22.5 -65q0 -51 -31 -86
t-79 -35q-37 0 -61.5 25.5t-24.5 64.5q0 46 30 84.5t80 38.5zM1049 1632q39 0 61.5 -27t22.5 -65q0 -50 -31 -85.5t-78 -35.5q-38 0 -62 25t-26 65q0 46 30.5 84.5t82.5 38.5z" />
    <glyph glyph-name="Zacute" unicode="&#x179;" horiz-adv-x="1210" 
d="M1257 1329l13 -29q-570 -692 -989 -1216q95 -10 307 -10q159 0 241.5 12t128.5 51q39 34 74.5 87.5t79.5 140.5l59 -27q-92 -273 -122 -338h-1033l-14 33q646 780 1002 1224h-310q-99 0 -155 -8.5t-79.5 -22t-45.5 -40.5q-54 -61 -107 -195l-61 6q55 198 86 383h43
q18 -34 37 -42.5t65 -8.5h780zM1106 1544l-6 -16l-393 -129l-27 53q61 39 176 112.5t160 102.5q21 -6 52.5 -50t37.5 -73z" />
    <glyph glyph-name="zacute" unicode="&#x17a;" horiz-adv-x="854" 
d="M868 950l41 -45q-41 -53 -125 -143q-104 -117 -542 -561q62 3 157 -33q134 -49 181 -49q43 0 92 38.5t114 135.5l50 -37q-83 -166 -150.5 -232.5t-138.5 -66.5q-68 0 -273 100q-88 42 -133 11q-34 -20 -63 -70q-14 -21 -27 -16q-20 8 -25.5 30.5t17.5 70.5t82 110
q51 53 255.5 256t309.5 315q-53 -12 -129 -6q-117 9 -186 12q-67 0 -110 -41t-95 -131l-53 29q41 96 86 170q77 121 153 121q58 0 211 -25q114 -21 172 -21q57 0 129 78zM844 1354l-324 -348l-51 32q73 117 188 324q20 6 88 13.5t93 4.5z" />
    <glyph glyph-name="Zdotaccent" unicode="&#x17b;" horiz-adv-x="1210" 
d="M1257 1329l13 -29q-570 -692 -989 -1216q95 -10 307 -10q159 0 241.5 12t128.5 51q39 34 74.5 87.5t79.5 140.5l59 -27q-92 -273 -122 -338h-1033l-14 33q646 780 1002 1224h-310q-99 0 -155 -8.5t-79.5 -22t-45.5 -40.5q-54 -61 -107 -195l-61 6q55 198 86 383h43
q18 -34 37 -42.5t65 -8.5h780zM793 1653q43 0 66.5 -29t23.5 -70q0 -51 -32.5 -87.5t-82.5 -36.5q-40 0 -66 27t-26 69q0 46 32.5 86.5t84.5 40.5z" />
    <glyph glyph-name="zdotaccent" unicode="&#x17c;" horiz-adv-x="854" 
d="M868 950l41 -45q-41 -53 -125 -143q-104 -117 -542 -561q62 3 157 -33q134 -49 181 -49q43 0 92 38.5t114 135.5l50 -37q-83 -166 -150.5 -232.5t-138.5 -66.5q-68 0 -273 100q-88 42 -133 11q-34 -20 -63 -70q-14 -21 -27 -16q-20 8 -25.5 30.5t17.5 70.5t82 110
q51 53 255.5 256t309.5 315q-53 -12 -129 -6q-117 9 -186 12q-67 0 -110 -41t-95 -131l-53 29q41 96 86 170q77 121 153 121q58 0 211 -25q114 -21 172 -21q57 0 129 78zM598 1307q42 0 66 -28.5t24 -70.5q0 -52 -32.5 -88.5t-82.5 -36.5q-40 0 -66 27t-26 70q0 46 32 86.5
t85 40.5z" />
    <glyph glyph-name="Zcaron" unicode="&#x17d;" horiz-adv-x="1210" 
d="M1257 1329l13 -29q-570 -692 -989 -1216q95 -10 307 -10q159 0 241.5 12t128.5 51q39 34 74.5 87.5t79.5 140.5l59 -27q-92 -273 -122 -338h-1033l-14 33q646 780 1002 1224h-310q-99 0 -155 -8.5t-79.5 -22t-45.5 -40.5q-54 -61 -107 -195l-61 6q55 198 86 383h43
q18 -34 37 -42.5t65 -8.5h780zM1055 1673l28 -47q-162 -107 -282 -217h-53q-86 103 -216 217l39 47q93 -38 224 -119q146 78 260 119z" />
    <glyph glyph-name="zcaron" unicode="&#x17e;" horiz-adv-x="854" 
d="M868 950l41 -45q-41 -53 -125 -143q-104 -117 -542 -561q62 3 157 -33q134 -49 181 -49q43 0 92 38.5t114 135.5l50 -37q-83 -166 -150.5 -232.5t-138.5 -66.5q-68 0 -273 100q-88 42 -133 11q-34 -20 -63 -70q-14 -21 -27 -16q-20 8 -25.5 30.5t17.5 70.5t82 110
q51 53 255.5 256t309.5 315q-53 -12 -129 -6q-117 9 -186 12q-67 0 -110 -41t-95 -131l-53 29q41 96 86 170q77 121 153 121q58 0 211 -25q114 -21 172 -21q57 0 129 78zM788 1380l48 -39q-187 -212 -269 -331h-49q-47 137 -147 333l53 37q66 -76 143 -192q142 132 221 192z
" />
    <glyph glyph-name="longs" unicode="&#x17f;" horiz-adv-x="477" 
d="M715 1454q52 0 89.5 -30t35.5 -62q-1 -25 -19 -52t-39 -42q-30 -17 -49 2q-70 73 -131 73q-28 0 -51 -20t-47.5 -73.5t-48.5 -156.5t-49 -259q-86 -523 -115 -662q-51 -233 -109.5 -357.5t-152.5 -213.5q-65 -65 -125.5 -94t-104.5 -29q-46 0 -87.5 28.5t-41.5 61.5
q0 47 60 92q25 20 43 2q25 -23 61.5 -39t67.5 -16q52 0 82 41q65 65 135 497q14 89 32.5 203t31.5 195.5t26 156.5q37 216 91.5 355.5t133.5 234.5q58 71 136.5 117.5t144.5 46.5z" />
    <glyph glyph-name="florin" unicode="&#x192;" horiz-adv-x="983" 
d="M420 760l24 102q54 228 213 359q142 114 254 114q44 0 82 -28t37 -62q0 -21 -14 -44.5t-33 -35.5q-22 -19 -45 0q-76 66 -133 66q-49 0 -86 -53q-47 -73 -111 -418h244l-23 -76h-237l-80 -375q-25 -119 -58.5 -210t-73 -149t-73.5 -92t-78 -65q-107 -76 -186 -76
q-44 0 -79.5 27.5t-35.5 58.5q0 43 54 86q19 16 38 0q69 -61 127 -61q52 0 84 72q45 119 86 340l84 444h-194l22 76h191z" />
    <glyph glyph-name="Ohorn" unicode="&#x1a0;" horiz-adv-x="1456" 
d="M682 -31q-244 0 -395.5 161t-151.5 421q0 159 57 307t155 259t238.5 178t297.5 67q75 0 137 -16q122 -27 199 -27q71 0 114 22t43 52q0 19 -12.5 29t-46.5 16q-39 11 -39 47q0 40 36 69t79 29q45 0 70.5 -26t25.5 -76q0 -99 -71.5 -161.5t-190.5 -74.5q93 -73 149 -194
t56 -277q0 -162 -56 -309.5t-154 -257t-238.5 -174t-301.5 -64.5zM698 43q95 0 179.5 46t145.5 123t105.5 175t66.5 204.5t22 209.5q0 105 -19.5 190.5t-59.5 153.5t-109 105.5t-161 37.5q-112 0 -211 -67.5t-165.5 -176.5t-105 -245t-38.5 -273q0 -140 36 -246.5
t116.5 -171.5t197.5 -65z" />
    <glyph glyph-name="ohorn" unicode="&#x1a1;" horiz-adv-x="970" 
d="M444 59q32 0 64 13q83 34 148.5 185t64.5 343q0 118 -43.5 180t-114.5 62q-35 0 -74 -17q-31 -14 -64.5 -52.5t-67 -100.5t-55 -159t-21.5 -210q0 -114 44 -179t119 -65zM369 -25q-73 0 -128.5 27t-87 73t-46.5 102t-15 120q0 190 88 338.5t221 218.5q126 68 232 68
q49 0 96 -13q40 -12 82 -12q58 0 92.5 20.5t34.5 45.5q0 22 -12 31.5t-49 15.5q-41 12 -41 49q0 41 31.5 68.5t72.5 27.5q45 0 71.5 -29.5t26.5 -85.5q0 -83 -53.5 -135.5t-144.5 -73.5q69 -81 69 -231q0 -138 -57 -273t-162 -223q-153 -129 -321 -129z" />
    <glyph glyph-name="Uhorn" unicode="&#x1af;" horiz-adv-x="1447" 
d="M1096 1272l14 57h217q242 0 242 68q0 19 -12 29t-48 16q-39 11 -39 47q0 40 36 70t79 30q45 0 70.5 -27t25.5 -77q0 -151 -165 -209q-60 -22 -83 -44t-40 -75q-34 -120 -82 -360l-33 -166q-34 -178 -89 -308t-149 -219q-73 -67 -165.5 -101t-188.5 -34q-200 0 -319 111
q-157 147 -93 495l97 510q9 44 12 69t0 47.5t-10.5 32.5t-28.5 18.5t-45.5 12t-69.5 7.5l15 57h522l-12 -57q-43 -4 -65.5 -7t-46 -11.5t-33 -18t-21 -32.5t-17 -48t-14.5 -70l-94 -499q-24 -137 -15 -233t51.5 -156t102 -87.5t137.5 -27.5q180 0 289 136.5t166 428.5
l31 150q46 247 53 362q3 62 -34 84.5t-148 28.5z" />
    <glyph glyph-name="uhorn" unicode="&#x1b0;" horiz-adv-x="1095" 
d="M1014 238l28 -50q-78 -93 -167.5 -153t-139.5 -60q-26 0 -40 18t-16 65.5t19 131.5q20 82 37 172h-4q-74 -102 -160.5 -187.5t-164.5 -139.5q-85 -60 -162 -60q-132 0 -70 269q15 65 51.5 217t55.5 235q16 69 -5 72q-26 0 -139 -94l-24 53q88 86 176.5 140.5t134.5 54.5
q25 0 36 -17t9 -57.5t-18 -110.5q-18 -79 -111 -479q-31 -135 22 -135q52 0 136.5 74t156 165.5t111.5 163.5q44 196 78 355l67 12q193 33 193 88q0 21 -12 30.5t-50 16.5q-41 12 -41 49q0 41 32 69t73 28q45 0 71.5 -30.5t26.5 -86.5q0 -145 -203 -215q-86 -354 -137 -625
q-9 -49 -7.5 -65.5t13.5 -16.5q13 0 60 32.5t84 70.5z" />
    <glyph glyph-name="Aringacute" unicode="&#x1fa;" horiz-adv-x="1361" 
d="M1274 57l-14 -57h-498l16 57q70 7 99.5 19t37 38t-1.5 70q-7 48 -24 152t-23 139h-422q-77 -141 -137 -270q-15 -31 -22.5 -50.5t-8 -36.5t6 -26t25.5 -16.5t44.5 -11t67.5 -7.5l-14 -57h-445l16 57q53 8 78 14.5t54.5 29t52 57t61.5 104.5l611 1079l71 19l53 -340
q50 -310 134 -776q8 -43 13 -66.5t14.5 -46.5t19.5 -33t30.5 -19.5t43 -13.5t61.5 -8zM852 565l-80 516h-4q-37 -69 -133.5 -245t-145.5 -271h363zM1073 1577q-3 -80 -62 -129t-137 -49q-73 0 -120 45.5t-45 116.5q3 83 61 134.5t135 51.5q72 0 120.5 -46.5t47.5 -123.5z
M977 1579q2 43 -19 70.5t-59 27.5q-41 0 -66.5 -31t-27.5 -79q-2 -44 18.5 -70.5t59.5 -26.5q38 0 65.5 31t28.5 78zM1217 1942l-7 -19l-391 -127l-28 53q52 32 111.5 70t126 80.5t97.5 62.5q22 -4 54 -48t37 -72z" />
    <glyph glyph-name="aringacute" unicode="&#x1fb;" horiz-adv-x="1015" 
d="M942 244l27 -49q-81 -99 -173.5 -159.5t-138.5 -60.5q-23 0 -35.5 13.5t-17.5 55t12 118.5l37 180h-4q-106 -151 -252 -272q-118 -95 -196 -95q-48 0 -85.5 60.5t-37.5 173.5q0 154 66 305.5t175 245.5q82 69 189 115.5t205 46.5q43 0 127 -15q69 -13 86 -12l6 -8
q-69 -271 -141 -662q-15 -88 4 -88q14 0 60 33t87 74zM319 117q56 0 185.5 140.5t177.5 242.5q31 106 68 301q-51 28 -132 28q-84 0 -137 -38q-97 -74 -156 -230t-59 -313q0 -131 53 -131zM711 1364q72 0 122.5 -48t49.5 -128q-3 -81 -64.5 -130.5t-140.5 -49.5
q-75 0 -123 47.5t-45 120.5q3 84 63 136t138 52zM705 1294q-40 0 -69 -32.5t-30 -81.5q0 -45 21.5 -74t58.5 -29q40 0 68.5 33t29.5 82q2 44 -19 73t-60 29zM1030 1757l-323 -348l-52 35q46 72 106 176t81 145q22 8 89.5 15.5t92.5 3.5z" />
    <glyph glyph-name="AEacute" unicode="&#x1fc;" horiz-adv-x="1767" 
d="M1739 1020l-62 -4q-3 130 -30 180q-18 36 -59 48.5t-148 12.5h-142q-52 0 -64.5 -11.5t-23.5 -65.5l-92 -492h187q47 0 75.5 1.5t53.5 8.5t38 15t27.5 28t23 40t23.5 59h62l-78 -398h-62q1 43 0 64t-7.5 43t-16 30t-32.5 15.5t-50.5 8.5t-75.5 1h-184l-58 -317
q-15 -83 -13 -123.5t24 -59.5q22 -18 67 -24t135 -6q112 0 167 12.5t96 52.5q60 58 137 197l59 -23q-7 -17 -34.5 -88t-52.5 -134.5t-38 -90.5h-968l12 57q47 4 71 7t50 12t37 19t24 33t19.5 50.5t15.5 73.5l70 352h-355q-207 -302 -270 -416q-38 -64 -29.5 -87.5
t74.5 -32.5l64 -11l-15 -57h-475l12 57q53 7 81 13.5t59 24t56.5 46t63.5 80.5q139 189 400 560.5t272 387.5q35 51 25.5 67t-78.5 24l-109 10l19 59h1059q-2 -15 -15 -129t-22 -180zM623 688h315l113 567q-27 0 -62 -32q-156 -220 -366 -535zM1552 1544l-4 -16l-393 -129
l-27 53q61 39 176 112.5t160 102.5q21 -6 52 -50t36 -73z" />
    <glyph glyph-name="aeacute" unicode="&#x1fd;" horiz-adv-x="1368" 
d="M1268 266l35 -49q-229 -240 -455 -240q-38 0 -72.5 13t-68 43t-54 89t-20.5 140q0 29 2 47l-4 2q-85 -120 -232 -237q-51 -41 -107 -69t-97 -28q-46 0 -83.5 55t-37.5 173q0 156 63.5 308.5t167.5 244.5q78 69 190 116.5t205 47.5q42 0 95 -15q44 -3 82 0l8 -10l-29 -115
l4 -2q65 64 153.5 103t157.5 39q84 0 133.5 -47t49.5 -117t-51 -132.5t-136.5 -108t-174.5 -77.5t-187 -55q-2 -23 -2 -68q0 -89 35.5 -150t113.5 -61q153 0 316 160zM610 831q-77 0 -129 -30q-82 -57 -143 -197q-76 -180 -76 -356q0 -58 14 -91.5t37 -33.5q31 0 80.5 32.5
t98.5 88.5q121 132 165 231q21 54 47 166.5t31 159.5q-48 30 -125 30zM1090 831q-56 0 -101 -30q-53 -35 -102.5 -120t-73.5 -226q103 28 176 59.5t115.5 66t61.5 70t20 76.5q0 51 -26.5 77.5t-69.5 26.5zM1135 1354l-326 -348l-49 32q113 181 186 324q22 6 89.5 13.5
t92.5 4.5z" />
    <glyph glyph-name="Oslashacute" unicode="&#x1fe;" horiz-adv-x="1454" 
d="M1296 1419l60 -45l-107 -145q86 -78 134.5 -195.5t48.5 -259.5q0 -219 -96.5 -403t-271 -293t-388.5 -109q-169 0 -297 84l-107 -141l-55 51l102 135q-88 78 -136.5 196t-47.5 257q0 159 57.5 307t155.5 259t239 178t298 67q176 0 303 -88zM416 227l696 944
q-36 56 -99.5 85.5t-142.5 29.5q-115 0 -215.5 -67t-167 -175t-104 -241.5t-37.5 -267.5q0 -197 70 -308zM1153 1102l-692 -942q83 -117 237 -117q95 0 180 45.5t146.5 121.5t106.5 173.5t67.5 203t22.5 208.5q0 193 -68 307zM1174 1563l-7 -17l-391 -129l-26 53
q198 128 333 216q23 -6 54.5 -50t36.5 -73z" />
    <glyph glyph-name="oslashacute" unicode="&#x1ff;" horiz-adv-x="974" 
d="M860 989l51 -39l-77 -104q79 -85 79 -252q0 -130 -58 -264t-159 -221q-65 -57 -156 -95.5t-175 -38.5q-87 0 -142 37l-80 -106l-49 45l76 102q-38 42 -58 108t-20 136q0 191 85 335t214 216q135 74 246 74q89 0 145 -37zM285 205l411 559q-39 76 -127 76q-37 0 -75 -15
q-24 -10 -52 -34t-59 -67.5t-56 -99t-41.5 -136.5t-17.5 -171q0 -38 17 -112zM725 692l-412 -555q43 -80 119 -80q35 0 72 15q85 34 159.5 183.5t73.5 340.5q0 58 -12 96zM872 1354l-323 -348l-51 32q73 117 188 324q20 6 87.5 13.5t92.5 4.5z" />
    <glyph glyph-name="uni0218" unicode="&#x218;" horiz-adv-x="966" 
d="M76 403l59 7q6 -49 20 -97t40.5 -98.5t62.5 -88t89.5 -61.5t117.5 -24q110 0 176 70.5t66 187.5q0 80 -45 145.5t-140 139.5l-59 45q-47 37 -80 67.5t-72 77t-59.5 102t-20.5 115.5q0 163 118 267t302 104q96 0 203 -35q23 -8 54 -21t34 -14q-3 -37 -4 -85.5t-1 -110.5
t-1 -95l-62 -6q-32 297 -245 297q-101 0 -162 -69.5t-61 -163.5q0 -56 26 -105.5t61.5 -84.5t96.5 -81l61 -45q119 -88 180.5 -175t61.5 -203q0 -117 -63.5 -209t-166.5 -139.5t-225 -47.5q-114 0 -214.5 40.5t-141.5 86.5q-1 21 -2.5 124.5t-3.5 182.5zM436 -104
q53 0 90 -38.5t37 -99.5q1 -52 -21.5 -94.5t-61 -70.5t-80 -46t-87.5 -28l-18 57q69 26 105 53.5t36 67.5q0 54 -74 76q-24 7 -24 41q0 35 28.5 58.5t69.5 23.5z" />
    <glyph glyph-name="uni0219" unicode="&#x219;" horiz-adv-x="696" 
d="M233 -25q-75 0 -143.5 48t-69.5 104q0 53 64 90q35 18 53 -6q42 -61 97 -95t108 -34q56 0 91.5 34t35.5 81q0 39 -26 76t-97 92q-45 35 -68.5 55.5t-54.5 54t-45 68.5t-14 75q0 111 110 203q50 43 116 72t118 29q67 0 115.5 -37.5t48.5 -81.5q0 -26 -15.5 -50.5
t-40.5 -39.5q-28 -17 -47 8q-76 98 -163 98q-44 0 -74.5 -30t-30.5 -78t34 -88t101 -91q95 -69 135.5 -122.5t40.5 -120.5q0 -77 -59.5 -151t-148 -118.5t-171.5 -44.5zM246 -88q53 0 90 -38t37 -99q1 -98 -73 -157.5t-177 -84.5l-19 57q71 28 106.5 56t35.5 67q0 51 -74 76
q-25 4 -25 39t29 59.5t70 24.5z" />
    <glyph glyph-name="uni021A" unicode="&#x21a;" horiz-adv-x="1241" 
d="M1307 1380h47q-23 -115 -49 -364l-66 -4q0 132 -25 186q-15 35 -58.5 47t-154.5 12h-120l-191 -1009q-8 -44 -11 -70t1.5 -48.5t14 -33.5t33.5 -20t53 -12.5t79 -6.5l-12 -57h-576l15 57q46 3 73.5 6.5t52 13t36 20t23 34t17.5 48t15 69.5l192 1009h-102
q-122 0 -168.5 -12.5t-77.5 -48.5q-44 -52 -102 -184h-64q67 222 97 368h47q14 -33 33.5 -42t62.5 -9h778q38 0 57 10t50 41zM545 -82q53 0 90 -38t37 -99q1 -52 -21.5 -94.5t-61 -71t-80.5 -46.5t-89 -28l-17 58q70 27 106 54t36 68q0 52 -74 74q-25 7 -25 41q0 35 28 58.5
t71 23.5z" />
    <glyph glyph-name="uni021B" unicode="&#x21b;" horiz-adv-x="634" 
d="M702 889l-55 -74l-201 -10l-116 -555q-10 -49 -11 -76.5t5 -37t18 -9.5q24 0 82 38.5t98 78.5l29 -47q-64 -77 -164 -149.5t-174 -72.5q-29 0 -46.5 24.5t-22 85.5t19.5 165l119 555h-150l-6 18l51 66h123l47 192l170 133l21 -14l-72 -311h235zM244 -80q52 0 89 -38
t38 -99q0 -52 -22.5 -94.5t-61 -71t-80 -47t-88.5 -29.5l-17 58q69 26 105.5 54t36.5 68q0 51 -74 76q-25 3 -25 39q0 35 28.5 59.5t70.5 24.5z" />
    <glyph glyph-name="uni021C" unicode="&#x21c;" horiz-adv-x="1024" 
d="M303 551l-20 61q491 161 491 455q0 103 -56 160t-145 57q-100 0 -173 -71.5t-142 -223.5l-59 21q46 129 82 276q39 9 108.5 30t128 32.5t123.5 11.5q154 0 246 -72.5t92 -191.5q0 -59 -23.5 -112t-68.5 -99.5t-98 -85.5t-125 -80v-4q140 -30 221.5 -118t81.5 -214
q0 -124 -72 -235t-194 -191t-278 -134.5t-329 -76.5l-119 98l21 43q122 -28 211 -28q103 0 201 34t175 93.5t124 149.5t47 194q0 125 -73.5 195.5t-174.5 70.5q-76 0 -203 -45z" />
    <glyph glyph-name="uni021D" unicode="&#x21d;" horiz-adv-x="757" 
d="M131 219l-12 55q187 79 282 166.5t95 200.5q0 69 -40.5 110.5t-103.5 41.5q-56 0 -110 -28t-129 -91l-31 45q200 203 367 203q102 0 165.5 -62t63.5 -155q0 -165 -240 -320v-4q106 -22 169 -92t63 -170q0 -106 -61 -209.5t-160 -182t-226 -134t-258 -74.5l-90 75l16 41
q65 -14 121 -14q123 0 230 55t172 153.5t65 217.5q0 98 -52.5 156.5t-125.5 58.5q-57 0 -170 -43z" />
    <glyph glyph-name="uni0232" unicode="&#x232;" horiz-adv-x="1259" 
d="M1413 1329l-16 -57q-98 -11 -139.5 -36t-118.5 -122q-95 -119 -330 -455q-36 -51 -51 -118l-58 -283q-9 -47 -13 -74.5t0.5 -51t12.5 -34.5t33.5 -20t52 -12.5t78.5 -8.5l-14 -57h-565l14 57q47 3 72.5 6t50.5 12.5t36 20t23 35.5t18.5 51.5t16.5 75.5l53 270
q14 59 -10 123q-86 239 -174 471q-19 51 -30.5 74.5t-34 41.5t-47.5 23t-78 11l16 57h485l-14 -57l-70 -10q-49 -7 -58.5 -24.5t5.5 -63.5q116 -326 180 -486q231 325 320 475q31 54 21.5 73t-68.5 28l-60 8l17 57h444zM1120 1571l-28 -111h-469l30 111h467z" />
    <glyph glyph-name="uni0233" unicode="&#x233;" horiz-adv-x="915" 
d="M502 162h4q54 81 83.5 128.5t80.5 136.5t76.5 160t25.5 124q0 38 -24 98q-9 25 4 55q12 25 38 41.5t52 16.5q36 0 61 -32t25 -85q3 -88 -74 -219q-147 -263 -362 -566q-221 -318 -373 -485l-223 -57l-17 47q280 183 477 446q-1 116 -21.5 320.5t-43.5 351.5
q-17 121 -43 121q-13 0 -47 -32.5t-70 -84.5l-37 49q60 93 129 159.5t123 66.5q44 0 70.5 -59.5t40.5 -188.5q30 -230 45 -512zM823 1227l-26 -113h-463l28 113h461z" />
    <glyph glyph-name="uni0237" unicode="&#x237;" horiz-adv-x="552" 
d="M135 657l-26 50q89 92 186.5 153.5t146.5 61.5q36 0 40 -52t-19 -165q0 -2 -117 -578q-73 -369 -250 -524q-72 -66 -129.5 -96.5t-91.5 -30.5q-32 0 -61 20t-29 49q0 24 16 51.5t37 45.5q23 20 45 6q64 -37 105 -37q42 0 71.5 46t55.5 157q19 79 39.5 178t35 173
t44 228.5t47.5 247.5q7 36 10.5 57t3.5 34t-3 17.5t-9 4.5q-14 0 -61.5 -31t-86.5 -66z" />
    <glyph glyph-name="circumflex" unicode="&#x2c6;" 
d="M768 1038l-51 -37q-54 58 -148 193q-128 -124 -223 -193l-43 39q180 203 268 332h52q45 -142 145 -334z" />
    <glyph glyph-name="caron" unicode="&#x2c7;" 
d="M774 1380l47 -39q-183 -207 -268 -331h-49q-45 132 -148 333l54 37q66 -76 143 -192q142 132 221 192z" />
    <glyph glyph-name="uni02C9" unicode="&#x2c9;" 
d="M776 1227l-26 -113h-463l28 113h461z" />
    <glyph glyph-name="breve" unicode="&#x2d8;" 
d="M737 1315h58q-23 -145 -97.5 -209t-175.5 -64q-48 0 -85.5 13.5t-67 45t-37 84t3.5 130.5h57q2 -71 40.5 -110.5t105.5 -39.5t119.5 39.5t78.5 110.5z" />
    <glyph glyph-name="dotaccent" unicode="&#x2d9;" 
d="M569 1307q44 0 67 -28.5t23 -70.5q0 -52 -32 -88.5t-82 -36.5q-39 0 -65.5 27.5t-26.5 69.5q0 46 32 86.5t84 40.5z" />
    <glyph glyph-name="ring" unicode="&#x2da;" 
d="M571 1364q73 0 123 -48t47 -128q-1 -81 -61.5 -130.5t-140.5 -49.5q-75 0 -123 47.5t-45 120.5q3 84 62 136t138 52zM565 1294q-40 0 -68.5 -32.5t-29.5 -81.5q-2 -45 20 -74t60 -29q40 0 68.5 33t29.5 82q2 44 -19.5 73t-60.5 29z" />
    <glyph glyph-name="ogonek" unicode="&#x2db;" 
d="M532 -309l15 -58l-107 -57q-42 -20 -78 -20q-61 0 -101 36t-40 97q0 41 22.5 84t64.5 85t80.5 73.5t92.5 70.5h86q-198 -168 -198 -266q0 -31 19.5 -48.5t53.5 -17.5q39 0 90 21z" />
    <glyph glyph-name="tilde" unicode="&#x2dc;" 
d="M760 1274l51 -27q-67 -180 -168 -180q-17 0 -35.5 5t-30 9.5t-37.5 16t-36 16.5q-48 25 -88 25q-50 0 -99 -88l-49 32q34 91 79 134t89 43q40 0 121 -37q75 -35 109 -35q42 0 94 86z" />
    <glyph glyph-name="hungarumlaut" unicode="&#x2dd;" 
d="M526 1333l-241 -329l-56 32q17 42 46 112t54.5 132t28.5 68q21 6 81 9t81 -1zM809 1333l-242 -329l-51 32q119 297 125 312q22 6 81.5 9t80.5 -1z" />
    <glyph glyph-name="uni0374" unicode="&#x374;" horiz-adv-x="491" 
d="M293 836l-49 22q106 295 162 490q22 6 83 -4t78 -23v-35q-117 -200 -274 -450z" />
    <glyph glyph-name="uni0375" unicode="&#x375;" horiz-adv-x="491" 
d="M35 -246l-53 25q95 268 165 495q22 6 82.5 -3t77.5 -21v-35q-169 -296 -272 -461z" />
    </font>
</defs>
</svg>
